<?xml version="1.0" standalone="no"?>
<!DOCTYPE svg PUBLIC "-//W3C//DTD SVG 1.1//EN" "http://www.w3.org/Graphics/SVG/1.1/DTD/svg11.dtd" >
<svg xmlns="http://www.w3.org/2000/svg">
<metadata></metadata>
<defs>
<font id="fixedsys_excelsior_3.01Rg" horiz-adv-x="1024" >
<font-face units-per-em="2048" ascent="1664" descent="-384" />
<missing-glyph horiz-adv-x="500" />
<glyph unicode="&#x627;&#x653;" horiz-adv-x="1408" d="M768 1152h128v-1152h-128v1152zM768 1408h-128v128h128v-128h256v-128h-256v128zM512 1408h128v-128h-128v128zM1024 1536h128v-128h-128v128z" />
<glyph unicode="&#x627;&#x654;" horiz-adv-x="1408" d="M768 1152h128v-1152h-128v1152zM640 1536h128v-128h256v-128h-384v256zM768 1664h256v-128h-256v128z" />
<glyph unicode="&#x648;&#x654;" horiz-adv-x="1408" d="M384 512h128v128h384v-128h128v-512h-128v-256h-128v-128h-256v256h256v128h-256v128h-128v384zM512 1024h128v-128h256v-128h-384v256zM512 256h384v128h-384v-128zM640 1152h256v-128h-256v128z" />
<glyph unicode="&#x627;&#x655;" horiz-adv-x="1408" d="M768 1152h128v-1152h128v-128h-256v1280zM640 -128h128v-128h256v-128h-384v256z" />
<glyph unicode="&#x64a;&#x654;" horiz-adv-x="1408" d="M128 384h128v-256h896v128h-384v128h-128v384h128v128h512v-256h-512v-128h384v-128h128v-384h-128v-128h-896v128h-128v384zM128 768h128v-128h256v-128h-384v256zM256 896h256v-128h-256v128z" />
<glyph unicode="&#x627;&#x674;" horiz-adv-x="1408" d="M384 1152h128v-1152h-128v1152zM768 1152h128v-128h256v-128h-384v256zM896 1280h256v-128h-256v128z" />
<glyph unicode="&#x648;&#x674;" horiz-adv-x="1408" d="M256 512h128v128h384v-128h128v-512h-128v-256h-128v-128h-256v256h256v128h-256v128h-128v384zM896 1024h128v-128h256v-128h-384v256zM384 256h384v128h-384v-128zM1024 1152h256v-128h-256v128z" />
<glyph unicode="&#x6c7;&#x674;" horiz-adv-x="1408" d="M384 512h128v128h384v-128h128v-512h-128v-256h-128v-128h-256v256h256v128h-256v128h-128v384zM768 1024h128v-128h256v-128h-384v256zM512 256h384v128h-384v-128zM896 1152h256v-128h-256v128zM384 896h-128v128h-128v128h128v-128h128v128h-128v128h128v-128h128 v-384h-128v128zM256 768h128v-128h-128v128z" />
<glyph unicode="&#x64a;&#x674;" horiz-adv-x="1408" d="M128 384h128v-256h896v128h-384v128h-128v384h128v128h512v-256h-512v-128h384v-128h128v-384h-128v-128h-896v128h-128v384zM896 1280h128v-128h256v-128h-384v256zM1024 1408h256v-128h-256v128z" />
<glyph unicode="&#x647;&#x654;" horiz-adv-x="1408" d="M896 0h-384v128h-128v512h128v128h384v-128h128v-512h-128v-128zM512 256h384v256h-384v-256zM512 1152h128v-128h256v-128h-384v256zM640 1280h256v-128h-256v128z" />
<glyph unicode="&#x6c1;&#x654;" horiz-adv-x="1408" d="M1024 -128h-256v-128h-128v-128h-128v512h-128v-128h-384v256h384v128h128v128h128v-512h128v128h256v128h384v-256h-384v-128zM512 1024h128v-128h256v-128h-384v256zM640 1152h256v-128h-256v128z" />
<glyph unicode="&#x6d2;&#x654;" horiz-adv-x="1408" d="M896 256h-128v-128h-256v-128h-256v-128h1024v-256h-1024v128h-128v384h128v128h256v128h256v128h128v-256zM128 768h128v-128h256v-128h-384v256zM256 896h256v-128h-256v128z" />
<glyph unicode="&#x7a;&#x7a;skull" horiz-adv-x="2048" d="M512 0v128h-128v128h256v640h-128v128h-256v128h-128v256h256v-128h128v-128h128v-128h896v128h128v128h128v-128h128v-128h-256v-128h-128v-640h256v-128h128v-256h-256v128h-128v128h-128v-256h-640v256h-128v-128h-128zM1408 512v384h-640v-384h640zM1920 1152v128 h-128v128h256v-256h-128zM512 0v-128h-256v256h128v-128h128zM1280 0v128h-128v-128h128zM1024 256v128h-128v-128h128zM1280 256v128h-128v-128h128zM384 1152v128h-128v-128h128zM1792 0v128h-128v-128h128zM1024 640h-128v128h128v-128zM1024 0v128h-128v-128h128z M1280 640h-128v128h128v-128z" />
<glyph unicode="&#x7a;&#x7a;heart" horiz-adv-x="2048" d="M1152 0h-128v128h-128v128h-128v128h-128v128h-128v128h-128v128h-128v512h128v128h128v128h384v-128h128v-128h128v128h128v128h384v-128h128v-128h128v-512h-128v-128h-128v-128h-128v-128h-128v-128h-128v-128h-128v-128z" />
<glyph unicode="&#x3c;&#x2d;" horiz-adv-x="2048" d="M512 256h128v-128h-256v128h-128v128h-128v128h128v128h128v128h256v-128h-128v-128h1408v-128h-1408v-128z" />
<glyph unicode="&#x2d;&#x3e;" horiz-adv-x="2048" d="M1408 768h256v-128h128v-128h128v-128h-128v-128h-128v-128h-256v128h128v128h-1408v128h1408v128h-128v128z" />
<glyph unicode="&#x3c;&#x2d;&#x3e;" horiz-adv-x="3072" d="M2432 256h128v128h-2048v-128h128v-128h-256v128h-128v128h-128v128h128v128h128v128h256v-128h-128v-128h2048v128h-128v128h256v-128h128v-128h128v-128h-128v-128h-128v-128h-256v128z" />
<glyph unicode="&#x7a;&#x7a;poop" horiz-adv-x="2048" d="M384 128h-128v256h128v128h128v128h384v128h128v128h512v-128h128v-256h128v-384h-128v-128h-1280v128zM1280 256h-128v128h-128v128h-128v-128h128v-128h128v-128h128v128zM1408 384h-128v-128h128v-128h128v128h-128v128zM768 1280h128v-128h128v-128h-128v128h-128 v128zM384 1408h128v-128h128v-128h-128v128h-128v128zM384 1152h128v-128h128v-128h-128v128h-128v128zM768 1536h128v-128h128v-128h-128v128h-128v128zM1280 512h128v-128h128v128h-128v128h-128v-128zM1408 1408h128v-128h128v-128h-128v128h-128v128zM896 384h-128v-128 h128v-128h128v128h-128v128zM768 256h-128v128h-128v-128h128v-128h128v128zM384 896h128v-128h-128v128zM512 1536h128v-128h-128v128zM1280 768h-128v-128h128v128zM768 512h-128v-128h128v128zM1408 1152h128v-128h-128v128zM768 1024h128v-128h-128v128zM1536 1536h128 v-128h-128v128zM1280 512h-128v-128h128v128z" />
<glyph unicode="&#x7a;&#x7a;guitar" d="M896 -256h-128v-128h-512v128h-128v384h128v384h-128v256h128v-128h128v-128h128v896h128v-128h128v-128h-128v-640h128v128h128v-256h-128v-256h128v-384z" />
<glyph unicode="&#x7a;&#x7a;erasure" horiz-adv-x="2048" d="M512 0h128v-128h128v-128h-256v128h-128v128h-128v256h-128v256h1536v256h-128v256h-128v128h-128v128h-256v128h256v-128h256v-128h128v-128h128v-256h128v-384h-1408v-384zM512 640h-384v128h128v256h128v128h128v128h256v-128h-128v-128h-128v-384zM1792 256v-256 h-128v-128h-128v-128h-256v128h128v128h128v256h256zM1024 -384v128h256v-128h-256z" />
<glyph unicode="&#x7a;&#x7a;prince" horiz-adv-x="2048" d="M1920 512h-128v128h-128v128h-512v-384h256v-128h-256v-256h256v-128h-128v-128h-128v-128h-256v128h-128v128h-128v128h256v256h-256v128h256v384h-512v-256h128v-128h-256v128h-128v256h128v128h512v128h-128v384h128v128h512v-128h128v-384h-128v-128h384v128h128v128 h128v-640zM1152 1024v384h-256v-384h256zM512 640h128v-128h-128v128z" />
<glyph unicode="&#x7a;&#x7a;pulp" horiz-adv-x="3072" d="M2944 1024h-2688v128h2688v-128h128v-1024h-128v1024zM256 0h-128v1024h128v-1024h2560h128v-128h-2688v128zM2688 768h-256v-640h-128v768h384v-128h128v-256h-128v256zM768 768h-256v-640h-128v768h384v-128h128v-256h-128v256zM1664 896h128v-640h384v-128h-512v768z M1152 256h-128v640h128v-640h256v-128h-256v128zM1408 896h128v-640h-128v640zM640 512h128v-128h-128v128zM2560 512h128v-128h-128v128z" />
<glyph unicode="&#x7a;&#x7a;neubauten" horiz-adv-x="1152" d="M128 1408h128v-256h128v-128h384v-128h-128v-128h256v-128h128v-256h-128v128h-256v-256h256v-128h128v-128h-128v-256h-128v256h-384v-384h-128v256h-128v256h128v128h-128v384h128v128h256v128h-128v128h-128v128h-128v256zM768 1536h-384v128h384v-128h128v-128h128 v-256h-128v256h-128v128zM256 256h256v256h-256v-256zM512 1408h128v-256h-128v256zM256 1536h128v-128h-128v128zM768 1152h128v-128h-128v128z" />
<glyph unicode="&#x7a;&#x7a;gristle" horiz-adv-x="1280" d="M128 512h128v128h128v128h128v128h128v-256h512v-128h-128v-128h-128v-128h-128v-128h-128v256h-512v128zM768 1152h128v-128h-128v128zM512 128h128v-128h-128v128zM640 1024h128v-128h-128v128zM384 0h128v-128h-128v128z" />
<glyph unicode="&#x7a;&#x7a;abba" horiz-adv-x="4480" d="M384 0h-256v256h128v384h128v384h128v256h384v-256h128v-384h128v-384h128v384h128v128h-128v384h128v128h768v-1280h-768v128h-128v-128h-256v256h-640v-256zM3456 0h-256v128h-128v-128h-768v1280h768v-128h128v-384h-128v-128h128v-384h128v384h128v384h128v256h384 v-256h128v-384h128v-384h128v-256h-256v256h-640v-256zM1536 512v-256h384v256h-384zM2944 256v256h-384v-256h384zM3840 1024h-128v-384h-128v-128h384v128h-128v384zM768 1024h-128v-384h-128v-128h384v128h-128v384zM1536 1024v-256h384v256h-384zM2944 1024h-384v-256 h384v256z" />
<glyph unicode="&#x7a;&#x7a;katebush" horiz-adv-x="2048" d="M768 -128h-256v128h-128v128h-128v256h-128v512h128v128h512v-1152zM1536 0v128h-128v256h-128v256h128v256h128v128h256v-128h128v-512h-128v-256h-128v-128h-128zM1536 1280h-1024v128h256v128h512v-128h256v-128zM1024 -256v640h128v-256h128v-384h-256zM1152 896 v-256h-128v384h256v-128h-128z" />
<glyph unicode="&#x7a;&#x7a;enterprise" horiz-adv-x="4096" d="M1920 384v128h-128v128h-384v256h-128v128h-128v-128h128v-256h-512v128h384v128h-128v128h-896v256h128v-128h1280v128h-1280v128h1280v-128h128v-256h-256v-128h128v-128h256v-128h128v-128h256v-384h128v-128h128v-128h128v-128h896v-128h-896v128h-256v128h-128v256 h-128v128h-256v128h-256v-128h-128v256h384v-128h128zM1536 -128v128h-1280v-128h1280v-128h-1280v128h-128v256h896v128h128v-128h128v128h-128v128h-384v128h-256v128h256v-128h512v-256h128v-128h256v-256h-128zM3840 128v896h-128v128h-128v128h-128v128h-896v128h896 v-128h256v-128h128v-256h128v-896h-128zM2176 512v128h-256v128h-128v128h256v128h128v-384h128v-128h-128zM3072 512v128h-128v-128h128v-128h-256v128h-128v128h128v128h256v-128h128v-128h-128zM2176 1280h128v128h256v-128h-128v-128h-128v-128h-128v256zM3840 128v-256 h-128v-128h-256v128h128v128h128v128h128z" />
<glyph unicode="&#x7a;&#x7a;voyager" horiz-adv-x="3072" d="M768 512v256h-128v256h-128v-256h-128v256h-128v256h128v-128h512v128h-512v128h512v-128h128v-256h-256v-256h256v-256h640v-128h128v-128h384v128h-256v128h-256v256h-640v128h384v128h256v128h640v-128h256v-128h128v-128h128v-256h-128v-128h-128v-128h-256v-128 h-640v128h-256v128h-384v128h-256zM896 0v128h-512v-128h512v-128h-512v128h-128v256h128v256h-128v256h128v-256h128v-256h128v256h128v-256h256v-256h-128zM2432 384v128h-128v256h-384v128h256v128h-384v-128h-128v-128h256v-256h384v-128h128zM2560 512v256h-128v-256 h128zM2432 768v128h-128v-128h128z" />
<glyph unicode="&#x7a;&#x7a;toast" d="M768 128v512h128v-640h-768v640h-128v256h128v-256h128v-512h512zM384 768v128h-256v128h256v-128h256v-128h-256zM1024 896v-256h-128v256h128zM640 896v128h256v-128h-256z" />
<glyph unicode="&#x7a;&#x7a;cherries" d="M768 -256h-256v128h-128v128h-256v128h-128v256h128v-256h256v256h-256v128h256v128h128v-384h256v512h-128v-128h-128v256h128v128h-128v128h-128v384h256v-128h128v-256h128v-1280h-128v-128zM768 128h-256v-256h256v256zM640 1408v-256h128v-128h-128v128h-128v256 h128z" />
<glyph unicode="&#x7a;&#x7a;icecream" d="M896 256h-128v128h-128v128h-128v128h-128v-128h128v-128h128v-128h128v-256h-128v-256h-128v256h-128v256h-128v512h-128v384h128v-256h128v-128h384v128h128v256h-128v128h-384v128h384v-128h128v-128h128v-384h-128v-512zM640 512h128v128h-128v-128zM512 128h128v128 h-128v-128zM512 384h-128v-128h128v128zM256 1280h128v-128h-128v128z" />
<glyph unicode="&#x7a;&#x7a;apple" d="M256 1280h128v-128h128v-128h128v-256h256v-128h128v-512h-128v512h-256v-128h-128v128h-256v256h-128v256h128v128zM256 128h-128v512h128v-512h256v-128h-256v128zM256 896h128v-128h128v256h-128v128h-128v-256zM640 0v128h-128v128h128v-128h256v-128h-256zM640 1152 h128v-128h-128v128z" />
<glyph unicode="&#x2d;&#x2d;" horiz-adv-x="2048" d="M1920 512h-1792v128h1792v-128z" />
<glyph unicode="Catbeef" horiz-adv-x="7808" d="M4352 128h384v-128h-384v128h-128v384h128v256h128v-256h384v-128h-512v-256zM5376 128h384v-128h-384v128h-128v384h128v256h128v-256h384v-128h-512v-256zM6784 640h256v-128h-384v-384h-128v384h-256v128h384v384h128v-384zM2176 896h384v256h128v-256h256v-128h-384 v-256h-128v256h-256v128zM3456 1152h128v-256h256v-128h128v-512h-128v512h-384v384zM1792 128h-128v256h-384v128h512v-384h128v-128h-128v128zM2432 0v128h-128v384h128v-384h384v-128h-384zM1280 0v128h-128v256h128v-256h384v-128h-384zM1920 512h-128v256h-384v128h384 v-128h128v-256zM3200 256h128v-128h384v-128h-512v256zM7168 128h256v-256h-256v256zM3328 768h128v-512h-128v512zM128 128v512h128v-512h-128zM6784 1152h384v-128h-384v128zM5504 768v128h384v-128h-384zM4480 768v128h384v-128h-384zM6400 128h128v-384h-128v384z M640 128v-128h-384v128h384zM512 1024v128h384v-128h-384zM5888 768h128v-256h-128v256zM4864 768h128v-256h-128v256zM6144 -256h256v-128h-256v128zM256 640v256h128v-256h-128zM7552 128h128v-128h-128v128zM7552 -128h128v-128h-128v128zM768 128h-128v128h128v-128z M3712 256h128v-128h-128v128zM512 896h-128v128h128v-128zM3584 1280h128v-128h-128v128zM7168 384h128v-128h-128v128zM1024 1024v-128h-128v128h128zM5888 128h-128v128h128v-128zM4864 128h-128v128h128v-128zM7424 384h128v-128h-128v128z" />
<glyph unicode="onehundredpercent" d="M512 896h-256v128h-256v128h-128v128h128v-128h256v-128h256v-128h128v-128h-128v128zM512 384h384v-128h-384v128zM-256 1664h256v-128h-128v-128h-128v256zM256 1280h-256v128h256v-128h128v-128h-128v128zM256 768h-128v128h128v-128h256v-128h-256v128zM640 640h128 v-128h-128v128zM-384 1408h128v-128h-128v128zM640 128h128v-128h-128v128z" />
<glyph unicode="nowmoremoist" horiz-adv-x="3840" d="M2432 1024h512v-128h-384v-128h256v-128h-256v-128h384v-128h-512v640zM2048 512v128h-128v-256h-128v640h384v-128h128v-128h-128v128h-256v-128h256v-256h-128zM1024 1280h-128v128h-128v-256h-128v512h128v-128h128v-128h128v256h128v-512h-128v128zM2688 256h640 v-128h-256v-512h-128v512h-256v128zM384 0h-128v-384h-128v640h128v-128h128v-128h128v-128h-128v128zM640 768h-128v-384h-128v640h128v-128h128v-128h128v-128h-128v128zM640 0h-128v128h128v128h128v-640h-128v384zM1024 -256h-128v384h128v-384h384v-128h-384v128z M896 768h-128v128h128v128h128v-640h-128v384zM1408 128h-384v128h384v-128h128v-384h-128v384zM1664 256h128v-640h-128v640zM2432 -128h-384v128h-128v128h128v-128h384v-128h128v-128h-128v128zM1536 896h-256v128h256v-128h128v-384h-128v384zM1280 512h-128v384h128 v-384h256v-128h-256v128zM2048 256h512v-128h-512v128zM1408 1280h-128v256h128v-256h256v-128h-256v128zM1920 -256h512v-128h-512v128zM1664 1536h-256v128h256v-128h128v-256h-128v256zM2048 1280h-128v384h128v-384h128v-128h-128v128zM2432 1664h128v-384h-128v384z M2304 1280h-128v256h128v-256h128v-128h-128v128zM3456 128h128v-256h-128v256zM3584 384h128v-256h-128v256zM3328 -256h128v-128h-128v128zM2304 512v-128h-128v128h128z" />
<glyph unicode="&#xfee0;&#xf63b;" horiz-adv-x="1408" d="M1152 0v-128h-256v128h-512v256h384v128h-128v256h-128v256h-128v256h128v-256h128v-256h128v-256h128v768h128v-896h384v-256h-256v128h-256v-128h256zM256 -256h128v128h256v-128h128v128h128v-128h256v-128h-512v128h-128v-128h-256v128z" />
<glyph unicode="&#xfe8e;&#x674;" horiz-adv-x="1408" d="M512 128h-128v1024h128v-896h896v-256h-896v128zM768 1152h128v-128h256v-128h-384v256zM896 1280h256v-128h-256v128z" />
<glyph unicode="&#xfef3;&#x674;" horiz-adv-x="1408" d="M640 0h-640v256h640v384h128v-512h-128v-128zM512 -128h128v-128h-128v128zM768 -128h128v-128h-128v128zM896 1024h128v-128h256v-128h-384v256zM1024 1152h256v-128h-256v128z" />
<glyph unicode="&#xfef4;&#x674;" horiz-adv-x="1408" d="M768 128h-128v-128h-640v256h640v256h128v-256h640v-256h-640v128zM768 -128h128v-128h-128v128zM512 -128h128v-128h-128v128zM896 1024h128v-128h256v-128h-384v256zM1024 1152h256v-128h-256v128z" />
<glyph unicode="&#xfba8;&#x654;" horiz-adv-x="1408" d="M768 -128h128v-256h-256v384h-640v256h640v128h128v256h128v-384h-128v-128h128v-128h-128v-128zM640 1024h128v-128h256v-128h-384v256zM768 1152h256v-128h-256v128zM768 128h-128v-128h128v128z" />
<glyph unicode="&#xfba7;&#x654;" horiz-adv-x="1408" d="M384 128h128v128h128v256h128v-128h128v-128h512v-256h-512v128h-256v-128h-128v-128h-128v256zM512 896h128v-128h256v-128h-384v256zM640 1024h256v-128h-256v128z" />
<glyph unicode="&#xfedf;&#xf63b;" horiz-adv-x="1408" d="M384 256h384v128h-128v256h-128v256h-128v256h128v-256h128v-256h128v-256h128v768h128v-1024h-128v-128h-512v256zM384 -256h128v128h256v-128h128v128h128v-128h256v-128h-512v128h-128v-128h-256v128zM1024 0h256v-128h-256v128z" />
<glyph unicode="&#xfbd8;&#x674;" horiz-adv-x="1408" d="M896 -256h-128v-128h-256v256h256v128h-256v128h-128v384h128v128h384v-128h128v-256h384v-256h-512v-256zM384 896h-128v128h-128v128h128v-128h128v128h-128v128h128v-128h128v-384h-128v128zM768 1024h128v-128h256v-128h-384v256zM512 256h384v128h-384v-128z M896 1152h256v-128h-256v128zM256 768h128v-128h-128v128z" />
<glyph unicode="&#xfeee;&#x674;" horiz-adv-x="1408" d="M768 -256h-128v-128h-256v256h256v128h-256v128h-128v384h128v128h384v-128h128v-256h512v-256h-640v-256zM896 1024h128v-128h256v-128h-384v256zM384 256h384v128h-384v-128zM1024 1152h256v-128h-256v128z" />
<glyph unicode="&#xfef2;&#x674;" horiz-adv-x="1408" d="M128 0h-128v384h128v-256h640v128h-128v384h128v128h256v-128h128v-128h128v-128h128v-256h-128v128h-128v128h-128v128h-256v-128h128v-128h128v-256h-128v-128h-768v128zM512 -256h128v-128h-128v128zM256 -256h128v-128h-128v128zM896 1152h128v-128h256v-128h-384 v256zM1024 1280h256v-128h-256v128z" />
<glyph unicode="&#xfedf;&#xfb51;" horiz-adv-x="1408" d="M384 256h384v128h-128v256h-128v256h-128v256h128v-256h128v-256h128v-256h128v768h128v-1024h-128v-128h-512v256zM128 1408h256v128h128v-128h256v-128h-640v128zM768 1536h-256v128h256v-128h128v-128h-128v128z" />
<glyph unicode="&#xfee0;&#xfb51;" horiz-adv-x="1408" d="M1024 128h-128v-128h-512v256h384v128h-128v256h-128v256h-128v256h128v-256h128v-256h128v-256h128v768h128v-896h384v-256h-384v128zM128 1408h256v128h128v-128h256v-128h-640v128zM768 1536h-256v128h256v-128h128v-128h-128v128z" />
<glyph unicode="&#x7a;&#x7a;triforce" horiz-adv-x="1920" d="M128 128h128v256h128v256h128v256h128v256h128v256h128v256h128v-256h128v-256h128v-256h128v-256h128v-256h128v-256h128v-128h-1664v128zM640 640h128v-256h128v-256h128v256h128v256h128v256h-640v-256z" />
<glyph unicode="&#x7a;&#x7a;coinblock" horiz-adv-x="2048" d="M128 1536h1792v-1792h-1792v1792zM512 768h256v384h384v-384h-128v-128h-128v-256h256v256h256v512h-128v128h-640v-128h-128v-384zM896 0h256v256h-256v-256zM1664 1280h128v128h-128v-128zM256 -128h128v128h-128v-128zM256 1280h128v128h-128v-128zM1664 -128h128v128 h-128v-128z" />
<glyph unicode="&#xfeea;&#x654;" horiz-adv-x="1408" arabic-form="final" d="M896 256h512v-256h-512v128h-128v256h-128v-128h-256v128h-128v384h128v128h384v128h128v-768zM384 1408h128v-128h256v-128h-384v256zM384 512h384v128h-384v-128zM512 1536h256v-128h-256v128z" />
<glyph unicode="&#xfbaf;&#x654;" horiz-adv-x="1408" arabic-form="final" d="M256 -128h1024v-256h-1024v128h-128v384h128v128h1152v-256h-1152v-128zM256 640h128v-128h256v-128h-384v256zM384 768h256v-128h-256v128z" />
<glyph unicode="&#xfe8e;&#x653;" horiz-adv-x="1408" arabic-form="final" d="M512 0v128h-128v1024h128v-896h896v-256h-896zM384 1408h-128v128h128v-128h256v-128h-256v128zM128 1408h128v-128h-128v128zM640 1536h128v-128h-128v128z" />
<glyph unicode="&#xfe8e;&#x654;" horiz-adv-x="1408" arabic-form="final" d="M512 0v128h-128v1024h128v-896h896v-256h-896zM256 1536h128v-128h256v-128h-384v256zM384 1664h256v-128h-256v128z" />
<glyph unicode="&#xfeee;&#x654;" horiz-adv-x="1408" arabic-form="final" d="M896 -256h-128v-128h-256v256h256v128h-256v128h-128v384h128v128h384v-128h128v-256h384v-256h-512v-256zM512 1024h128v-128h256v-128h-384v256zM512 256h384v128h-384v-128zM640 1152h256v-128h-256v128z" />
<glyph unicode="&#xfe8e;&#x655;" horiz-adv-x="1408" arabic-form="final" d="M640 0v128h-128v128h-128v896h128v-768h128v-128h768v-256h-768zM256 -128h128v-128h256v-128h-384v256zM384 0h256v-128h-256v128z" />
<glyph unicode="&#xfef2;&#x654;" horiz-adv-x="1408" arabic-form="final" d="M128 0h-128v384h128v-256h640v128h-128v384h128v128h256v-128h128v-128h128v-128h128v-256h-128v128h-128v128h-128v128h-256v-128h128v-128h128v-256h-128v-128h-768v128zM128 768h128v-128h256v-128h-384v256zM256 896h256v-128h-256v128z" />
<glyph unicode="&#xfef3;&#x654;" horiz-adv-x="1408" arabic-form="initial" d="M768 0h-768v256h768v384h128v-512h-128v-128zM640 1024h128v-128h256v-128h-384v256zM768 1152h256v-128h-256v128z" />
<glyph unicode="&#xfef4;&#x654;" horiz-adv-x="1408" arabic-form="medial" d="M768 128h-128v-128h-640v256h640v256h128v-256h640v-256h-640v128zM512 896h128v-128h256v-128h-384v256zM640 1024h256v-128h-256v128z" />
<glyph unicode="&#xfedf;&#xfe82;" horiz-adv-x="1408" arabic-form="isolated" d="M384 256h384v128h-128v256h-128v256h-128v256h128v-256h128v-256h128v-256h128v768h128v-1024h-128v-128h-512v256zM384 1408h-128v128h128v-128h256v-128h-256v128zM128 1408h128v-128h-128v128zM640 1536h128v-128h-128v128z" />
<glyph unicode="&#xfee0;&#xfe82;" horiz-adv-x="1408" arabic-form="final" d="M1024 128h-128v-128h-512v256h384v128h-128v256h-128v256h-128v256h128v-256h128v-256h128v-256h128v768h128v-896h384v-256h-384v128zM384 1408h-128v128h128v-128h256v-128h-256v128zM128 1408h128v-128h-128v128zM640 1536h128v-128h-128v128z" />
<glyph unicode="&#xfedf;&#xfe84;" horiz-adv-x="1408" arabic-form="isolated" d="M384 256h384v128h-128v256h-128v256h-128v256h128v-256h128v-256h128v-256h128v768h128v-1024h-128v-128h-512v256zM256 1536h128v-128h256v-128h-384v256zM384 1664h256v-128h-256v128z" />
<glyph unicode="&#xfee0;&#xfe84;" horiz-adv-x="1408" arabic-form="final" d="M1024 128h-128v-128h-512v256h384v128h-128v256h-128v256h-128v256h128v-256h128v-256h128v-256h128v768h128v-896h384v-256h-384v128zM256 1536h128v-128h256v-128h-384v256zM384 1664h256v-128h-256v128z" />
<glyph unicode="&#xfedf;&#xfe88;" horiz-adv-x="1408" arabic-form="isolated" d="M384 0v256h384v128h-128v256h-128v256h-128v256h128v-256h128v-256h128v-256h128v768h128v-896h-128v-128h-128v-128h-384zM640 -128h128v-128h256v-128h-384v256zM1024 0v-128h-256v128h256z" />
<glyph unicode="&#xfee0;&#xfe88;" horiz-adv-x="1408" arabic-form="final" d="M1024 -128h-256v128h-384v256h384v128h-128v256h-128v256h-128v256h128v-256h128v-256h128v-256h128v768h128v-896h384v-256h-384v128h-256v-128h256v-128zM640 -128h128v-128h256v-128h-384v256z" />
<glyph unicode="&#xfedf;&#xf5d9;" horiz-adv-x="1408" arabic-form="isolated" d="M384 256h384v128h-128v256h-128v256h-128v256h128v-256h128v-256h128v-256h128v768h128v-1024h-128v-128h-512v256z" />
<glyph unicode="&#xfee0;&#xf5d9;" horiz-adv-x="1408" arabic-form="final" d="M1024 128h-128v-128h-512v256h384v128h-128v256h-128v256h-128v256h128v-256h128v-256h128v-256h128v768h128v-896h384v-256h-384v128z" />
<glyph unicode="&#x671;" horiz-adv-x="1408" arabic-form="final" d="M896 128h-128v1024h128v-896h512v-256h-512v128zM512 1408h256v128h128v-128h256v-128h-640v128zM1152 1536h-256v128h256v-128h128v-128h-128v128z" />
<glyph unicode="&#x67b;" horiz-adv-x="1408" arabic-form="final" d="M640 0h-384v128h-128v512h128v-384h896v256h128v-256h128v-256h-128v128h-128v-128h-384v-128h-128v128zM640 -256h128v-128h-128v128z" />
<glyph unicode="&#x67b;" horiz-adv-x="1408" arabic-form="initial" d="M768 0h-768v256h768v384h128v-512h-128v-128h128v-128h-128v128zM768 -256h128v-128h-128v128z" />
<glyph unicode="&#x67b;" horiz-adv-x="1408" arabic-form="medial" d="M768 -128h-128v128h-640v256h640v256h128v-256h640v-256h-640v128h-128v-128h128v-128zM640 -256h128v-128h-128v128z" />
<glyph unicode="&#x67e;" horiz-adv-x="1408" arabic-form="final" d="M1280 128h-128v-128h-896v128h-128v512h128v-384h896v256h128v-256h128v-256h-128v128zM896 -128h128v-128h-128v128zM640 -128h128v-128h-128v128zM384 -128h128v-128h-128v128z" />
<glyph unicode="&#x67e;" horiz-adv-x="1408" arabic-form="initial" d="M768 0h-768v256h768v384h128v-512h-128v-128zM384 -128h128v-128h-128v128zM896 -128h128v-128h-128v128zM640 -128h128v-128h-128v128z" />
<glyph unicode="&#x67e;" horiz-adv-x="1408" arabic-form="medial" d="M768 128h-128v-128h-640v256h640v256h128v-256h640v-256h-640v128zM896 -128h128v-128h-128v128zM640 -128h128v-128h-128v128zM384 -128h128v-128h-128v128z" />
<glyph unicode="&#x680;" horiz-adv-x="1408" arabic-form="final" d="M768 0h-128v-128h-128v128h-256v128h-128v512h128v-384h896v256h128v-256h128v-256h-128v128h-128v-128h-256v-128h-128v128zM512 -256h128v-128h-128v128zM768 -256h128v-128h-128v128z" />
<glyph unicode="&#x680;" horiz-adv-x="1408" arabic-form="initial" d="M768 0h-768v256h768v384h128v-512h-128v-128h128v-128h-128v128zM1024 -256h128v-128h-128v128zM768 -256h128v-128h-128v128zM1024 0h128v-128h-128v128z" />
<glyph unicode="&#x680;" horiz-adv-x="1408" arabic-form="medial" d="M768 128h-128v-256h-128v128h-512v256h640v256h128v-256h640v-256h-512v-128h-128v256zM512 -256h128v-128h-128v128zM768 -256h128v-128h-128v128z" />
<glyph unicode="&#x67a;" horiz-adv-x="1408" arabic-form="final" d="M1280 128h-128v-128h-896v128h-128v512h128v-384h896v256h128v-256h128v-256h-128v128zM640 1024h128v-128h-128v128zM640 768h128v-128h-128v128z" />
<glyph unicode="&#x67a;" horiz-adv-x="1408" arabic-form="initial" d="M768 0h-768v256h768v384h128v-512h-128v-128zM768 896h128v-128h-128v128zM768 1152h128v-128h-128v128z" />
<glyph unicode="&#x67a;" horiz-adv-x="1408" arabic-form="medial" d="M768 128h-128v-128h-640v256h640v256h128v-256h640v-256h-640v128zM640 768h128v-128h-128v128zM640 1024h128v-128h-128v128z" />
<glyph unicode="&#x67f;" horiz-adv-x="1408" arabic-form="final" d="M1280 128h-128v-128h-896v128h-128v512h128v-384h896v256h128v-256h128v-256h-128v128zM768 768h128v-128h-128v128zM512 1024h128v-128h-128v128zM512 768h128v-128h-128v128zM768 1024h128v-128h-128v128z" />
<glyph unicode="&#x67f;" horiz-adv-x="1408" arabic-form="initial" d="M768 0h-768v256h768v384h128v-512h-128v-128zM640 896h128v-128h-128v128zM896 896h128v-128h-128v128zM896 1152h128v-128h-128v128zM640 1152h128v-128h-128v128z" />
<glyph unicode="&#x67f;" horiz-adv-x="1408" arabic-form="medial" d="M768 128h-128v-128h-640v256h640v256h128v-256h640v-256h-640v128zM768 768h128v-128h-128v128zM512 768h128v-128h-128v128zM512 1024h128v-128h-128v128zM768 1024h128v-128h-128v128z" />
<glyph unicode="&#x679;" horiz-adv-x="1408" arabic-form="final" d="M1280 128h-128v-128h-896v128h-128v512h128v-384h896v256h128v-256h128v-256h-128v128zM640 768h256v-128h-512v128h128v384h128v-128h256v-128h128v-128h-128v128h-256v-128z" />
<glyph unicode="&#x679;" horiz-adv-x="1408" arabic-form="initial" d="M768 0h-768v256h768v384h128v-512h-128v-128zM768 896h256v-128h-512v128h128v384h128v-128h256v-128h128v-128h-128v128h-256v-128z" />
<glyph unicode="&#x679;" horiz-adv-x="1408" arabic-form="medial" d="M768 128h-128v-128h-640v256h640v256h128v-256h640v-256h-640v128zM640 768h256v-128h-512v128h128v384h128v-128h256v-128h128v-128h-128v128h-256v-128z" />
<glyph unicode="&#x6a4;" horiz-adv-x="1408" arabic-form="final" d="M0 512h128v-256h640v128h-128v384h128v128h384v-128h128v-384h-128v-128h256v-256h-256v128h-384v-128h-640v128h-128v384zM768 512h128v-128h128v128h128v128h-384v-128zM768 1152h128v-128h-128v128zM896 1408h128v-128h-128v128zM1024 1152h128v-128h-128v128z" />
<glyph unicode="&#x6a4;" horiz-adv-x="1408" arabic-form="initial" d="M0 0v256h896v128h-256v128h-128v384h128v128h384v-128h128v-640h-128v-128h-128v-128h-896zM640 640h384v128h-384v-128zM640 1280h128v-128h-128v128zM768 1536h128v-128h-128v128zM896 1280h128v-128h-128v128z" />
<glyph unicode="&#x6a4;" horiz-adv-x="1408" arabic-form="medial" d="M896 256h512v-256h-512v128h-384v-128h-512v256h512v128h-128v384h128v128h384v-128h128v-384h-128v-128zM512 512h128v-128h128v128h128v128h-384v-128zM512 1152h128v-128h-128v128zM640 1408h128v-128h-128v128zM768 1152h128v-128h-128v128z" />
<glyph unicode="&#x6a6;" horiz-adv-x="1408" arabic-form="final" d="M0 512h128v-256h640v128h-128v384h128v128h384v-128h128v-384h-128v-128h256v-256h-256v128h-384v-128h-640v128h-128v384zM768 512h128v-128h128v128h128v128h-384v-128zM1024 1152h128v-128h-128v128zM768 1408h128v-128h-128v128zM768 1152h128v-128h-128v128z M1024 1408h128v-128h-128v128z" />
<glyph unicode="&#x6a6;" horiz-adv-x="1408" arabic-form="initial" d="M0 0v256h896v128h-256v128h-128v384h128v128h384v-128h128v-640h-128v-128h-128v-128h-896zM640 640h384v128h-384v-128zM896 1280h128v-128h-128v128zM640 1536h128v-128h-128v128zM640 1280h128v-128h-128v128zM896 1536h128v-128h-128v128z" />
<glyph unicode="&#x6a6;" horiz-adv-x="1408" arabic-form="medial" d="M896 256h512v-256h-512v128h-384v-128h-512v256h512v128h-128v384h128v128h384v-128h128v-384h-128v-128zM512 512h128v-128h128v128h128v128h-384v-128zM768 1152h128v-128h-128v128zM512 1408h128v-128h-128v128zM512 1152h128v-128h-128v128zM768 1408h128v-128h-128 v128z" />
<glyph unicode="&#x684;" horiz-adv-x="1408" arabic-form="final" d="M1024 -256v-128h-640v128h-128v128h-128v512h128v128h128v128h512v128h-128v128h-256v-128h-256v128h128v128h512v-128h128v-128h128v-128h128v-128h-128v-128h128v-128h128v-256h-128v128h-128v128h-128v128h-640v-128h-128v-256h128v-128h128v-128h512zM768 -128h-128 v128h128v-128zM640 256h128v-128h-128v128zM1024 -256v128h128v-128h-128z" />
<glyph unicode="&#x684;" horiz-adv-x="1408" arabic-form="initial" d="M640 0h-640v256h896v128h-128v128h-256v-128h-256v128h128v128h512v-128h128v-128h128v-256h-128v-128h-256v-128h-128v128zM640 -256h128v-128h-128v128z" />
<glyph unicode="&#x684;" horiz-adv-x="1408" arabic-form="medial" d="M640 0h-640v256h896v128h-128v128h-256v-128h-256v128h128v128h512v-128h128v-128h128v-128h256v-256h-384v128h-128v-128h-128v-128h-128v128zM640 -256h128v-128h-128v128z" />
<glyph unicode="&#x683;" horiz-adv-x="1408" arabic-form="final" d="M384 -128h768v-128h-128v-128h-640v128h-128v128h-128v384h128v128h128v128h512v128h-128v128h-256v-128h-256v128h128v128h512v-128h128v-128h128v-128h128v-128h-128v-128h256v-256h-256v128h-128v128h-640v-128h-128v-128h128v-128zM768 128h128v-128h-128v128z M512 128h128v-128h-128v128z" />
<glyph unicode="&#x683;" horiz-adv-x="1408" arabic-form="initial" d="M1152 128h-128v-128h-1024v256h896v128h-128v128h-256v-128h-256v128h128v128h512v-128h128v-128h128v-256zM768 -256v128h128v-128h-128zM512 -256v128h128v-128h-128z" />
<glyph unicode="&#x683;" horiz-adv-x="1408" arabic-form="medial" d="M1024 128h-128v-128h-896v256h896v128h-128v128h-256v-128h-256v128h128v128h512v-128h128v-128h128v-128h256v-256h-384v128zM512 -128h128v-128h-128v128zM768 -128h128v-128h-128v128z" />
<glyph unicode="&#x686;" horiz-adv-x="1408" arabic-form="final" d="M384 -128h768v-128h-128v-128h-640v128h-128v128h-128v384h128v128h128v128h512v128h-128v128h-256v-128h-256v128h128v128h512v-128h128v-128h128v-128h128v-128h-128v-128h256v-256h-256v128h-128v128h-640v-128h128v-128h-128v-128zM384 128h-128v-128h128v128z M640 128h128v-128h-128v128zM1024 0h-128v128h128v-128z" />
<glyph unicode="&#x686;" horiz-adv-x="1408" arabic-form="initial" d="M1152 128h-128v-128h-1024v256h896v128h-128v128h-256v-128h-256v128h128v128h512v-128h128v-128h128v-256zM384 -128h128v-128h-128v128zM896 -128h128v-128h-128v128zM640 -128h128v-128h-128v128z" />
<glyph unicode="&#x686;" horiz-adv-x="1408" arabic-form="medial" d="M1024 128h-128v-128h-896v256h896v128h-128v128h-256v-128h-256v128h128v128h512v-128h128v-128h128v-128h256v-256h-384v128zM384 -128h128v-128h-128v128zM640 -128h128v-128h-128v128zM896 -128h128v-128h-128v128z" />
<glyph unicode="&#x687;" horiz-adv-x="1408" arabic-form="final" d="M1024 -256v-128h-640v128h-128v128h-128v512h128v128h128v128h512v128h-128v128h-256v-128h-256v128h128v128h512v-128h128v-128h128v-128h128v-128h-128v-128h128v-128h128v-256h-128v128h-128v128h-128v128h-640v-128h-128v-256h128v-128h128v-128h512zM768 0h128v-128 h-128v128zM640 -128h-128v128h128v-128zM512 256h128v-128h-128v128zM1024 -256v128h128v-128h-128zM768 256h128v-128h-128v128z" />
<glyph unicode="&#x687;" horiz-adv-x="1408" arabic-form="initial" d="M512 0h-512v256h896v128h-128v128h-256v-128h-256v128h128v128h512v-128h128v-128h128v-256h-128v-128h-128v-128h-128v128h-128v-128h-128v128zM512 -256h128v-128h-128v128zM768 -256h128v-128h-128v128z" />
<glyph unicode="&#x687;" horiz-adv-x="1408" arabic-form="medial" d="M512 0h-512v256h896v128h-128v128h-256v-128h-256v128h128v128h512v-128h128v-128h128v-128h256v-256h-384v128h-128v-256h-128v128h-128v-128h-128v128zM768 -256h128v-128h-128v128zM512 -256h128v-128h-128v128z" />
<glyph unicode="&#x68d;" horiz-adv-x="1408" arabic-form="final" d="M1024 128h-128v-128h-640v256h512v128h-128v128h-256v256h256v-128h128v-128h128v-128h128v-128h384v-256h-384v128zM640 -128h128v-128h-128v128zM384 -128h128v-128h-128v128z" />
<glyph unicode="&#x68c;" horiz-adv-x="1408" arabic-form="final" d="M1024 128h-128v-128h-640v256h512v128h-128v128h-256v256h256v-128h128v-128h128v-128h128v-128h384v-256h-384v128zM384 1024h128v-128h-128v128zM640 1024h128v-128h-128v128z" />
<glyph unicode="&#x68e;" horiz-adv-x="1408" arabic-form="final" d="M1024 128h-128v-128h-640v256h512v128h-128v128h-256v256h256v-128h128v-128h128v-128h128v-128h384v-256h-384v128zM512 1280h128v-128h-128v128zM640 1024h128v-128h-128v128zM384 1024h128v-128h-128v128z" />
<glyph unicode="&#x688;" horiz-adv-x="1408" arabic-form="final" d="M1024 128h-128v-128h-640v256h512v128h-128v128h-256v256h256v-128h128v-128h128v-128h128v-128h384v-256h-384v128zM512 1024h256v-128h-512v128h128v384h128v-128h256v-128h128v-128h-128v128h-256v-128z" />
<glyph unicode="&#x698;" horiz-adv-x="1408" arabic-form="final" d="M640 0v-256h-128v-128h-256v256h256v256h128v512h128v-256h128v-128h512v-256h-512v128h-128v-128h-128zM640 1152h128v-128h-128v128zM512 896h128v-128h-128v128zM768 896h128v-128h-128v128z" />
<glyph unicode="&#x691;" horiz-adv-x="1408" arabic-form="final" d="M640 0v-256h-128v-128h-256v256h256v256h128v512h128v-256h128v-128h512v-256h-512v128h-128v-128h-128zM640 896h256v-128h-512v128h128v384h128v-128h256v-128h128v-128h-128v128h-256v-128z" />
<glyph unicode="&#x6a9;" horiz-adv-x="1408" arabic-form="final" d="M1152 128h-128v-128h-896v128h-128v384h128v-256h768v128h-128v128h-128v384h128v128h128v128h128v128h128v-256h-128v-128h-128v-128h-128v-128h128v-128h128v-128h128v-128h256v-256h-256v128z" />
<glyph unicode="&#x6a9;" horiz-adv-x="1408" arabic-form="initial" d="M640 1024h128v128h128v128h128v-256h-128v-128h-128v-128h-128v-128h128v-128h128v-128h128v-256h-128v-128h-896v256h768v128h-128v128h-128v384h128v128z" />
<glyph unicode="&#x6a9;" horiz-adv-x="1408" arabic-form="medial" d="M1024 128h-128v-128h-896v256h768v128h-128v128h-128v384h128v128h128v128h128v128h128v-256h-128v-128h-128v-128h-128v-128h128v-128h128v-128h128v-128h384v-256h-384v128z" />
<glyph unicode="&#x6af;" horiz-adv-x="1408" arabic-form="final" d="M1152 128h-128v-128h-896v128h-128v384h128v-256h768v128h-128v128h-128v384h-128v128h128v-128h128v128h-128v128h128v-128h128v128h-128v128h128v-128h128v128h-128v128h128v-128h128v-256h-128v-128h-128v-128h-128v-128h128v-128h128v-128h128v-128h256v-256h-256 v128z" />
<glyph unicode="&#x6af;" horiz-adv-x="1408" arabic-form="initial" d="M512 1152h128v-128h128v128h-128v128h128v-128h128v128h-128v128h128v-128h128v-256h-128v-128h-128v-128h-128v-128h128v-128h128v-128h128v-256h-128v-128h-896v256h768v128h-128v128h-128v384h-128v128h128v-128h128v128h-128v128z" />
<glyph unicode="&#x6af;" horiz-adv-x="1408" arabic-form="medial" d="M1024 128h-128v-128h-896v256h768v128h-128v128h-128v384h-128v128h128v-128h128v128h-128v128h128v-128h128v128h-128v128h128v-128h128v128h-128v128h128v-128h128v-256h-128v-128h-128v-128h-128v-128h128v-128h128v-128h128v-128h384v-256h-384v128z" />
<glyph unicode="&#x6b3;" horiz-adv-x="1408" arabic-form="final" d="M512 0h-384v128h-128v384h128v-256h768v128h-128v128h-128v384h-128v128h128v-128h128v128h-128v128h128v-128h128v128h-128v128h128v-128h128v128h-128v128h128v-128h128v-256h-128v-128h-128v-128h-128v-128h128v-128h128v-128h128v-128h256v-256h-256v128h-128v-128 h-384v-128h-128v128zM512 -256h128v-128h-128v128z" />
<glyph unicode="&#x6b3;" horiz-adv-x="1408" arabic-form="initial" d="M512 1152h128v-128h128v128h-128v128h128v-128h128v128h-128v128h128v-128h128v-256h-128v-128h-128v-128h-128v-128h128v-128h128v-128h128v-256h-128v-128h-384v-128h-128v128h-384v256h768v128h-128v128h-128v384h-128v128h128v128zM384 -256h128v-128h-128v128z M512 896h128v128h-128v-128z" />
<glyph unicode="&#x6b3;" horiz-adv-x="1408" arabic-form="medial" d="M640 0h-640v256h768v128h-128v128h-128v384h-128v128h128v-128h128v128h-128v128h128v-128h128v128h-128v128h128v-128h128v128h-128v128h128v-128h128v-256h-128v-128h-128v-128h-128v-128h128v-128h128v-128h128v-128h384v-256h-384v128h-128v-128h-128v-128h-128v128z M640 -256h128v-128h-128v128z" />
<glyph unicode="&#x6b1;" horiz-adv-x="1408" arabic-form="final" d="M1152 128h-128v-128h-896v128h-128v384h128v-256h768v128h-128v128h-128v384h-128v128h128v-128h128v128h-128v128h128v-128h128v128h-128v128h128v-128h128v128h-128v128h128v-128h128v-256h-128v-128h-128v-128h-128v-128h128v-128h128v-128h128v-128h256v-256h-256 v128zM256 1408h128v-128h-128v128zM512 1408h128v-128h-128v128z" />
<glyph unicode="&#x6b1;" horiz-adv-x="1408" arabic-form="initial" d="M512 1152h128v-128h128v128h-128v128h128v-128h128v128h-128v128h128v-128h128v-256h-128v-128h-128v-128h-128v-128h128v-128h128v-128h128v-256h-128v-128h-896v256h768v128h-128v128h-128v384h-128v128h128v128zM128 1408h128v-128h-128v128zM384 1408h128v-128h-128 v128zM512 896h128v128h-128v-128z" />
<glyph unicode="&#x6b1;" horiz-adv-x="1408" arabic-form="medial" d="M1024 128h-128v-128h-896v256h768v128h-128v128h-128v384h-128v128h128v-128h128v128h-128v128h128v-128h128v128h-128v128h128v-128h128v128h-128v128h128v-128h128v-256h-128v-128h-128v-128h-128v-128h128v-128h128v-128h128v-128h384v-256h-384v128zM256 1536h128 v-128h-128v128zM512 1536h128v-128h-128v128z" />
<glyph unicode="&#x6ba;" horiz-adv-x="1408" arabic-form="final" d="M1152 -128h-128v-128h-640v128h-128v128h-128v512h128v-384h128v-128h640v128h128v384h128v-256h128v-256h-256v-128z" />
<glyph unicode="&#x6bb;" horiz-adv-x="1408" arabic-form="final" d="M1152 -128h-128v-128h-640v128h-128v128h-128v512h128v-384h128v-128h640v128h128v384h128v-256h128v-256h-256v-128zM640 768h256v-128h-512v128h128v384h128v-128h256v-128h128v-128h-128v128h-256v-128z" />
<glyph unicode="&#x6bb;" horiz-adv-x="1408" arabic-form="initial" d="M768 0h-768v256h768v384h128v-512h-128v-128zM768 896h256v-128h-512v128h128v384h128v-128h256v-128h128v-128h-128v128h-256v-128z" />
<glyph unicode="&#x6bb;" horiz-adv-x="1408" arabic-form="medial" d="M768 128h-128v-128h-640v256h640v256h128v-256h640v-256h-640v128zM640 768h256v-128h-512v128h128v384h128v-128h256v-128h128v-128h-128v128h-256v-128z" />
<glyph unicode="&#x6c1;" horiz-adv-x="1408" arabic-form="final" d="M384 128h128v128h128v256h128v-128h128v-128h512v-256h-512v128h-256v-128h-128v-128h-128v256z" />
<glyph unicode="&#x6c1;" horiz-adv-x="1408" arabic-form="initial" d="M640 0h-640v256h640v128h128v256h128v-384h-128v-128h128v-128h-128v-128h128v-256h-256v384zM768 128h-128v-128h128v128z" />
<glyph unicode="&#x6be;" horiz-adv-x="1408" arabic-form="final" d="M128 0v128h128v128h128v256h128v128h128v128h-128v256h128v-128h128v-128h128v-128h128v-128h128v-256h256v-256h-256v128h-128v-128h-896zM768 256v128h-256v-128h256zM896 384v-128h128v128h-128z" />
<glyph unicode="&#x6be;" horiz-adv-x="1408" arabic-form="medial" d="M0 256h384v256h128v128h128v128h-128v256h128v-128h128v-128h128v-128h128v-128h128v-256h256v-256h-256v128h-128v-128h-1024v256zM768 256v128h-256v-128h256zM896 384v-128h128v128h-128z" />
<glyph unicode="&#x6d2;" horiz-adv-x="1408" arabic-form="final" d="M256 -128h1024v-256h-1024v128h-128v384h128v128h1152v-256h-1152v-128z" />
<glyph unicode="&#x6ad;" horiz-adv-x="1408" arabic-form="final" d="M1152 128h-128v-128h-640v128h-128v256h128v-128h640v896h128v-896h256v-256h-256v128zM640 768h-128v128h128v-128h128v-128h-128v128zM768 1280h128v-128h-128v128zM512 640h128v-128h-128v128zM640 1024h128v-128h-128v128zM512 1280h128v-128h-128v128zM640 1536h128 v-128h-128v128z" />
<glyph unicode="&#x6ad;" horiz-adv-x="1408" arabic-form="initial" d="M512 512v384h128v128h128v128h128v128h128v-256h-128v-128h-128v-128h-128v-128h128v-128h128v-128h128v-256h-128v-128h-896v256h768v128h-128v128h-128zM512 1664h128v-128h-128v128zM640 1408h128v-128h-128v128zM384 1408h128v-128h-128v128z" />
<glyph unicode="&#x6ad;" horiz-adv-x="1408" arabic-form="medial" d="M1024 128h-128v-128h-896v256h768v128h-128v128h-128v384h128v128h128v128h128v128h128v-256h-128v-128h-128v-128h-128v-128h128v-128h128v-128h128v-128h384v-256h-384v128zM512 1664h128v-128h-128v128zM640 1408h128v-128h-128v128zM384 1408h128v-128h-128v128z" />
<glyph unicode="&#x6c7;" horiz-adv-x="1408" arabic-form="final" d="M896 -256h-128v-128h-256v256h256v128h-256v128h-128v384h128v128h384v-128h128v-256h384v-256h-512v-256zM768 1024h-128v128h-128v128h128v-128h128v128h-128v128h128v-128h128v-384h-128v128zM512 256h384v128h-384v-128zM640 896h128v-128h-128v128z" />
<glyph unicode="&#x6c6;" horiz-adv-x="1408" arabic-form="final" d="M896 -256h-128v-128h-256v256h256v128h-256v128h-128v384h128v128h384v-128h128v-256h384v-256h-512v-256zM512 1152h128v-256h128v-128h-128v128h-128v256zM512 256h384v128h-384v-128zM768 1152h128v-256h-128v256z" />
<glyph unicode="&#x6c8;" horiz-adv-x="1408" arabic-form="final" d="M896 -256h-128v-128h-256v256h256v128h-256v128h-128v384h128v128h384v-128h128v-256h384v-256h-512v-256zM512 256h384v128h-384v-128zM640 1152h128v-384h-128v384z" />
<glyph unicode="&#x6cb;" horiz-adv-x="1408" arabic-form="final" d="M384 512h128v128h384v-128h128v-256h384v-256h-512v-256h-128v-128h-256v256h256v128h-256v128h-128v384zM512 256h384v128h-384v-128zM640 1152h128v-128h-128v128zM512 896h128v-128h-128v128zM768 896h128v-128h-128v128z" />
<glyph unicode="&#x6c5;" horiz-adv-x="1408" arabic-form="final" d="M128 -256h256v128h-128v128h-128v128h256v-128h128v-128h256v128h-256v128h-128v384h128v128h384v-128h128v-256h384v-256h-512v-256h-128v-128h-640v128zM512 256h384v128h-384v-128z" />
<glyph unicode="&#x6c9;" horiz-adv-x="1408" arabic-form="final" d="M384 512h128v128h384v-128h128v-256h384v-256h-512v-256h-128v-128h-256v256h256v128h-256v128h-128v384zM512 256h384v128h-384v-128zM768 896h-128v128h128v-128h128v-128h-128v128zM512 896h128v-128h-128v128z" />
<glyph unicode="&#x6d0;" horiz-adv-x="1408" arabic-form="final" d="M1280 256h-128v128h-128v128h-128v128h-256v-128h128v-128h128v-256h-128v-128h-256v-128h-128v128h-256v128h-128v384h128v-256h512v128h-128v384h128v128h256v-128h128v-128h128v-128h128v-128h128v-256h-128v128zM384 -256h128v-128h-128v128z" />
<glyph unicode="&#x649;" horiz-adv-x="1408" arabic-form="initial" d="M768 0h-768v256h768v384h128v-512h-128v-128z" />
<glyph unicode="&#x649;" horiz-adv-x="1408" arabic-form="medial" d="M768 128h-128v-128h-640v256h640v256h128v-256h640v-256h-640v128z" />
<glyph unicode="&#xfdf2;" horiz-adv-x="1408" arabic-form="isolated" d="M256 640h128v128h128v-512h128v640h128v-640h128v768h-128v128h-128v128h128v-128h128v-128h128v-896h-128v-128h-128v128h-128v-128h-128v128h-256v128h-128v256h128v128zM1152 1152h128v-1152h-128v1152zM512 1152h-128v256h128v-256h128v-128h-128v128zM640 1664h128 v-256h-128v256zM256 384h128v128h-128v-128zM896 1408h128v-256h-128v256z" />
<glyph unicode="&#xfdfc;" horiz-adv-x="1408" arabic-form="isolated" d="M0 128h128v-128h128v-128h128v128h128v1152h128v-1280h-128v-128h-384v128h-128v256zM1024 128h128v-128h128v640h128v-768h-128v-128h-128v-128h-256v256h256v128h-128v128zM768 1408h128v-896h128v256h128v-384h-128v-128h-128v128h-128v1024zM768 128h128v-128h-128 v128z" />
<glyph unicode="&#x627;" horiz-adv-x="1408" arabic-form="final" d="M512 0v128h-128v1024h128v-896h896v-256h-896z" />
<glyph unicode="&#x628;" horiz-adv-x="1408" arabic-form="final" d="M1280 128h-128v-128h-896v128h-128v512h128v-384h896v256h128v-256h128v-256h-128v128zM640 -128h128v-128h-128v128z" />
<glyph unicode="&#x628;" horiz-adv-x="1408" arabic-form="initial" d="M768 0h-768v256h768v384h128v-512h-128v-128zM768 -128h128v-128h-128v128z" />
<glyph unicode="&#x628;" horiz-adv-x="1408" arabic-form="medial" d="M768 128h-128v-128h-640v256h640v256h128v-256h640v-256h-640v128zM640 -128h128v-128h-128v128z" />
<glyph unicode="&#x629;" horiz-adv-x="1408" arabic-form="final" d="M896 256h512v-256h-512v128h-128v256h-128v-128h-256v128h-128v384h128v128h384v128h128v-768zM384 512h384v128h-384v-128zM512 1280h128v-128h-128v128zM768 1280h128v-128h-128v128z" />
<glyph unicode="&#x62a;" horiz-adv-x="1408" arabic-form="final" d="M1280 128h-128v-128h-896v128h-128v512h128v-384h896v256h128v-256h128v-256h-128v128zM768 768h128v-128h-128v128zM512 768h128v-128h-128v128z" />
<glyph unicode="&#x62a;" horiz-adv-x="1408" arabic-form="initial" d="M768 0h-768v256h768v384h128v-512h-128v-128zM896 896h128v-128h-128v128zM640 896h128v-128h-128v128z" />
<glyph unicode="&#x62a;" horiz-adv-x="1408" arabic-form="medial" d="M768 128h-128v-128h-640v256h640v256h128v-256h640v-256h-640v128zM768 768h128v-128h-128v128zM512 768h128v-128h-128v128z" />
<glyph unicode="&#x62b;" horiz-adv-x="1408" arabic-form="final" d="M1280 128h-128v-128h-896v128h-128v512h128v-384h896v256h128v-256h128v-256h-128v128zM640 1024h128v-128h-128v128zM512 768h128v-128h-128v128zM768 768h128v-128h-128v128z" />
<glyph unicode="&#x62b;" horiz-adv-x="1408" arabic-form="initial" d="M768 0h-768v256h768v384h128v-512h-128v-128zM768 1152h128v-128h-128v128zM640 896h128v-128h-128v128zM896 896h128v-128h-128v128z" />
<glyph unicode="&#x62b;" horiz-adv-x="1408" arabic-form="medial" d="M768 128h-128v-128h-640v256h640v256h128v-256h640v-256h-640v128zM640 1024h128v-128h-128v128zM512 768h128v-128h-128v128zM768 768h128v-128h-128v128z" />
<glyph unicode="&#x62c;" horiz-adv-x="1408" arabic-form="final" d="M1024 256h-640v-128h-128v-128h128v-128h768v-128h-128v-128h-640v128h-128v128h-128v384h128v128h128v128h512v128h-128v128h-256v-128h-256v128h128v128h512v-128h128v-128h128v-128h128v-128h-128v-128h256v-256h-256v128h-128v128zM640 128h128v-128h-128v128z" />
<glyph unicode="&#x62c;" horiz-adv-x="1408" arabic-form="initial" d="M1152 128h-128v-128h-1024v256h896v128h-128v128h-256v-128h-256v128h128v128h512v-128h128v-128h128v-256zM640 -128h128v-128h-128v128z" />
<glyph unicode="&#x62c;" horiz-adv-x="1408" arabic-form="medial" d="M1024 128h-128v-128h-896v256h896v128h-128v128h-256v-128h-256v128h128v128h512v-128h128v-128h128v-128h128h128v-256h-384v128zM640 -128h128v-128h-128v128z" />
<glyph unicode="&#x62d;" horiz-adv-x="1408" arabic-form="final" d="M1024 256h-640v-128h-128v-128h128v-128h768v-128h-128v-128h-640v128h-128v128h-128v384h128v128h128v128h512v128h-128v128h-256v-128h-256v128h128v128h512v-128h128v-128h128v-128h128v-128h-128v-128h256v-256h-256v128h-128v128z" />
<glyph unicode="&#x62d;" horiz-adv-x="1408" arabic-form="initial" d="M1152 128h-128v-128h-1024v256h896v128h-128v128h-256v-128h-256v128h128v128h512v-128h128v-128h128v-256z" />
<glyph unicode="&#x62d;" horiz-adv-x="1408" arabic-form="medial" d="M1024 128h-128v-128h-896v256h896v128h-128v128h-256v-128h-256v128h128v128h512v-128h128v-128h128v-128h128h128v-256h-384v128z" />
<glyph unicode="&#x62e;" horiz-adv-x="1408" arabic-form="final" d="M1024 256h-640v-128h-128v-128h128v-128h768v-128h-128v-128h-640v128h-128v128h-128v384h128v128h128v128h512v128h-128v128h-256v-128h-256v128h128v128h512v-128h128v-128h128v-128h128v-128h-128v-128h256v-256h-256v128h-128v128zM640 1152h128v-128h-128v128z" />
<glyph unicode="&#x62e;" horiz-adv-x="1408" arabic-form="initial" d="M1152 128h-128v-128h-1024v256h896v128h-128v128h-256v-128h-256v128h128v128h512v-128h128v-128h128v-256zM640 896h128v-128h-128v128z" />
<glyph unicode="&#x62e;" horiz-adv-x="1408" arabic-form="medial" d="M1024 128h-128v-128h-896v256h896v128h-128v128h-256v-128h-256v128h128v128h512v-128h128v-128h128v-128h128h128v-256h-384v128zM640 896h128v-128h-128v128z" />
<glyph unicode="&#x62f;" horiz-adv-x="1408" arabic-form="final" d="M1024 128h-128v-128h-640v256h512v128h-128v128h-256v256h256v-128h128v-128h128v-128h128v-128h384v-256h-384v128z" />
<glyph unicode="&#x630;" horiz-adv-x="1408" arabic-form="final" d="M1024 128h-128v-128h-640v256h512v128h-128v128h-256v256h256v-128h128v-128h128v-128h128v-128h384v-256h-384v128zM512 1024h128v-128h-128v128z" />
<glyph unicode="&#x631;" horiz-adv-x="1408" arabic-form="final" d="M640 0v-256h-128v-128h-256v256h256v256h128v512h128v-256h128v-128h512v-256h-512v128h-128v-128h-128z" />
<glyph unicode="&#x632;" horiz-adv-x="1408" arabic-form="final" d="M640 0v-256h-128v-128h-256v256h256v256h128v512h128v-256h128v-128h512v-256h-512v128h-128v-128h-128zM640 896h128v-128h-128v128z" />
<glyph unicode="&#x633;" horiz-adv-x="1408" arabic-form="final" d="M640 384v-128h256v256h128v-256h256v384h128v-512h-128v-128h-256v128h-128v-128h-256v-256h-128v-128h-384v128h-128v384h128v-256h384v384h-128v256h128v-128h128z" />
<glyph unicode="&#x633;" horiz-adv-x="1408" arabic-form="initial" d="M0 256h384v256h128v-256h256v256h128v-256h256v384h128v-512h-128v-128h-256v128h-128v-128h-256v128h-128v-128h-384v256z" />
<glyph unicode="&#x633;" horiz-adv-x="1408" arabic-form="medial" d="M1280 128h-128v-128h-256v128h-128v-128h-256v128h-128v-128h-384v256h384v256h128v-256h256v256h128v-256h256v384h128v-384h128v-256h-128v128z" />
<glyph unicode="&#x634;" horiz-adv-x="1408" arabic-form="final" d="M640 384v-128h256v256h128v-256h256v384h128v-512h-128v-128h-256v128h-128v-128h-256v-256h-128v-128h-384v128h-128v384h128v-256h384v384h-128v256h128v-128h128zM1024 896h128v-128h-128v128zM896 1152h128v-128h-128v128zM768 896h128v-128h-128v128z" />
<glyph unicode="&#x634;" horiz-adv-x="1408" arabic-form="initial" d="M0 256h384v256h128v-256h256v256h128v-256h256v384h128v-512h-128v-128h-256v128h-128v-128h-256v128h-128v-128h-384v256zM640 896h128v-128h-128v128zM768 1152h128v-128h-128v128zM896 896h128v-128h-128v128z" />
<glyph unicode="&#x634;" horiz-adv-x="1408" arabic-form="medial" d="M1280 128h-128v-128h-256v128h-128v-128h-256v128h-128v-128h-384v256h384v256h128v-256h256v256h128v-256h256v384h128v-384h128v-256h-128v128zM640 896h128v-128h-128v128zM768 1152h128v-128h-128v128zM896 896h128v-128h-128v128z" />
<glyph unicode="&#x635;" horiz-adv-x="1408" arabic-form="final" d="M384 512h128v-128h128v128h128v128h128v128h384v-128h128v-512h-128v-128h-640v-256h-128v-128h-384v128h-128v384h128v-256h384v384h-128v256zM768 256h512v256h-384v-128h-128v-128z" />
<glyph unicode="&#x635;" horiz-adv-x="1408" arabic-form="initial" d="M1280 128h-128v-128h-768v128h-128v-128h-256v256h256v256h128v-128h128v128h128v128h128v128h384v-128h128v-512zM640 256h512v256h-384v-128h-128v-128z" />
<glyph unicode="&#x635;" horiz-adv-x="1408" arabic-form="medial" d="M1280 128h-128v-128h-768v128h-128v-128h-256v256h256v256h128v-128h128v128h128v128h128v128h384v-128h128v-384h128v-256h-128v128zM640 256h512v256h-384v-128h-128v-128z" />
<glyph unicode="&#x636;" horiz-adv-x="1408" arabic-form="final" d="M384 512h128v-128h128v128h128v128h128v128h384v-128h128v-512h-128v-128h-640v-256h-128v-128h-384v128h-128v384h128v-256h384v384h-128v256zM768 256h512v256h-384v-128h-128v-128zM896 1024h128v-128h-128v128z" />
<glyph unicode="&#x636;" horiz-adv-x="1408" arabic-form="initial" d="M1280 128h-128v-128h-768v128h-128v-128h-256v256h256v256h128v-128h128v128h128v128h128v128h384v-128h128v-512zM640 256h512v256h-384v-128h-128v-128zM768 1024h128v-128h-128v128z" />
<glyph unicode="&#x636;" horiz-adv-x="1408" arabic-form="medial" d="M1280 128h-128v-128h-768v128h-128v-128h-256v256h256v256h128v-128h128v128h128v128h128v128h384v-128h128v-384h128v-256h-128v128zM640 256h512v256h-384v-128h-128v-128zM768 1024h128v-128h-128v128z" />
<glyph unicode="&#x637;" horiz-adv-x="1408" arabic-form="final" d="M1280 128h-128v-128h-1024v256h256v896h128v-640h128v128h128v128h384v-128h128v-384h128v-256h-128v128zM640 256h512v256h-384v-128h-128v-128z" />
<glyph unicode="&#x637;" horiz-adv-x="1408" arabic-form="initial" d="M1280 128h-128v-128h-1152v256h384v896h128v-640h128v128h128v128h384v-128h128v-512zM640 256h512v256h-384v-128h-128v-128z" />
<glyph unicode="&#x637;" horiz-adv-x="1408" arabic-form="medial" d="M1280 128h-128v-128h-1152v256h384v896h128v-640h128v128h128v128h384v-128h128v-384h128v-256h-128v128zM640 256h512v256h-384v-128h-128v-128z" />
<glyph unicode="&#x638;" horiz-adv-x="1408" arabic-form="final" d="M1280 128h-128v-128h-1024v256h256v896h128v-640h128v128h128v128h384v-128h128v-384h128v-256h-128v128zM640 256h512v256h-384v-128h-128v-128zM768 1024h128v-128h-128v128z" />
<glyph unicode="&#x638;" horiz-adv-x="1408" arabic-form="initial" d="M1280 128h-128v-128h-1152v256h384v896h128v-640h128v128h128v128h384v-128h128v-512zM640 256h512v256h-384v-128h-128v-128zM768 1024h128v-128h-128v128z" />
<glyph unicode="&#x638;" horiz-adv-x="1408" arabic-form="medial" d="M1280 128h-128v-128h-1152v256h384v896h128v-640h128v128h128v128h384v-128h128v-384h128v-256h-128v128zM640 256h512v256h-384v-128h-128v-128zM768 1024h128v-128h-128v128z" />
<glyph unicode="&#x639;" horiz-adv-x="1408" arabic-form="final" d="M896 256h-384v-128h-128v-128h128v-128h384v128h128v-256h-128v-128h-512v128h-128v512h128v128h-128v384h128v128h384v-128h128v-384h128v-128h384v-256h-384v128h-128v128zM384 512h384v128h-384v-128z" />
<glyph unicode="&#x639;" horiz-adv-x="1408" arabic-form="initial" d="M512 128h-128v-128h-384v256h384v256h128v128h384v-128h128v-128h-512v-128h512v-128h-128v-128h-384v128z" />
<glyph unicode="&#x639;" horiz-adv-x="1408" arabic-form="medial" d="M1408 256v-256h-640v128h-128v-128h-640v256h512v128h-128v384h640v-384h-128v128h-384v-128h128v-128h128v128h128v-128h512z" />
<glyph unicode="&#x63a;" horiz-adv-x="1408" arabic-form="final" d="M896 256h-384v-128h-128v-128h128v-128h384v128h128v-256h-128v-128h-512v128h-128v512h128v128h-128v384h128v128h384v-128h128v-384h128v-128h384v-256h-384v128h-128v128zM384 512h384v128h-384v-128zM512 1152h128v-128h-128v128z" />
<glyph unicode="&#x63a;" horiz-adv-x="1408" arabic-form="initial" d="M512 128h-128v-128h-384v256h384v256h128v128h384v-128h128v-128h-512v-128h512v-128h-128v-128h-384v128zM640 896h128v-128h-128v128z" />
<glyph unicode="&#x63a;" horiz-adv-x="1408" arabic-form="medial" d="M640 1024h128v-128h-128v128zM1408 256v-256h-640v128h-128v-128h-640v256h512v128h-128v384h640v-384h-128v128h-384v-128h128v-128h128v128h128v-128h512z" />
<glyph unicode="&#x641;" horiz-adv-x="1408" arabic-form="final" d="M0 512h128v-256h640v128h-128v384h128v128h384v-128h128v-384h-128v-128h256v-256h-256v128h-384v-128h-640v128h-128v384zM768 512h128v-128h128v128h128v128h-384v-128zM896 1152h128v-128h-128v128z" />
<glyph unicode="&#x641;" horiz-adv-x="1408" arabic-form="initial" d="M0 0v256h896v128h-256v128h-128v384h128v128h384v-128h128v-640h-128v-128h-128v-128h-896zM640 640h384v128h-384v-128zM768 1280h128v-128h-128v128z" />
<glyph unicode="&#x641;" horiz-adv-x="1408" arabic-form="medial" d="M896 256h512v-256h-512v128h-384v-128h-512v256h512v128h-128v384h128v128h384v-128h128v-384h-128v-128zM512 512h128v-128h128v128h128v128h-384v-128zM640 1152h128v-128h-128v128z" />
<glyph unicode="&#x642;" horiz-adv-x="1408" arabic-form="final" d="M384 -256v128h-128v384h128v-256h128v-128h512v128h-256v128h-128v384h128v128h384v-128h128v-256h128v-256h-128v-128h-128v-128h-128v-128h-512v128h-128zM768 256h384v128h-384v-128zM1024 768v128h128v-128h-128zM768 896h128v-128h-128v128z" />
<glyph unicode="&#x642;" horiz-adv-x="1408" arabic-form="initial" d="M0 0v256h896v128h-256v128h-128v384h128v128h384v-128h128v-640h-128v-128h-128v-128h-896zM640 640h384v128h-384v-128zM640 1280h128v-128h-128v128zM896 1152v128h128v-128h-128z" />
<glyph unicode="&#x642;" horiz-adv-x="1408" arabic-form="medial" d="M896 256h512v-256h-512v128h-384v-128h-512v256h512v128h-128v384h128v128h384v-128h128v-384h-128v-128zM512 512h128v-128h128v128h128v128h-384v-128zM512 1152h128v-128h-128v128zM768 1152h128v-128h-128v128z" />
<glyph unicode="&#x643;" horiz-adv-x="1408" arabic-form="final" d="M1152 128h-128v-128h-640v128h-128v256h128v-128h640v896h128v-896h256v-256h-256v128zM640 768h-128v128h128v-128h128v-128h-128v128zM640 1024h128v-128h-128v128zM512 640h128v-128h-128v128z" />
<glyph unicode="&#x643;" horiz-adv-x="1408" arabic-form="initial" d="M512 512v384h128v128h128v128h128v128h128v-256h-128v-128h-128v-128h-128v-128h128v-128h128v-128h128v-256h-128v-128h-896v256h768v128h-128v128h-128z" />
<glyph unicode="&#x643;" horiz-adv-x="1408" arabic-form="medial" d="M1024 128h-128v-128h-896v256h768v128h-128v128h-128v384h128v128h128v128h128v128h128v-256h-128v-128h-128v-128h-128v-128h128v-128h128v-128h128v-128h384v-256h-384v128z" />
<glyph unicode="&#x644;" horiz-adv-x="1408" arabic-form="final" d="M1152 -128h-128v-128h-128v-128h-384v128h-128v128h-128v384h128v-256h128v-128h384v128h128v1152h128v-896h256v-256h-256v-128z" />
<glyph unicode="&#x644;" horiz-adv-x="1408" arabic-form="initial" d="M0 256h768v896h128v-1024h-128v-128h-768v256z" />
<glyph unicode="&#x644;" horiz-adv-x="1408" arabic-form="medial" d="M0 256h640v896h128v-896h640v-256h-640v128h-128v-128h-640v256z" />
<glyph unicode="&#x645;" horiz-adv-x="1408" arabic-form="final" d="M512 -384h-128v512h128v128h-128v256h128v128h256v-128h128v-128h128v-128h384v-256h-384v128h-128v-128h-384v-384zM512 256h256v128h-256v-128z" />
<glyph unicode="&#x645;" horiz-adv-x="1408" arabic-form="initial" d="M0 256h384v256h128v128h256v-128h128v-128h128v-256h-128v-128h-384v128h-128v-128h-384v256zM512 256h256v128h-256v-128z" />
<glyph unicode="&#x645;" horiz-adv-x="1408" arabic-form="medial" d="M0 256h384v256h128v128h256v-128h128v-128h128v-128h384v-256h-384v128h-128v-128h-384v128h-128v-128h-384v256zM512 256h256v128h-256v-128z" />
<glyph unicode="&#x646;" horiz-adv-x="1408" arabic-form="final" d="M1152 -128h-128v-128h-640v128h-128v128h-128v512h128v-384h128v-128h640v128h128v384h128v-256h128v-256h-256v-128zM640 768h128v-128h-128v128z" />
<glyph unicode="&#x646;" horiz-adv-x="1408" arabic-form="initial" d="M768 0h-768v256h768v384h128v-512h-128v-128zM768 896h128v-128h-128v128z" />
<glyph unicode="&#x646;" horiz-adv-x="1408" arabic-form="medial" d="M768 128h-128v-128h-640v256h640v256h128v-256h640v-256h-640v128zM640 768h128v-128h-128v128z" />
<glyph unicode="&#x647;" horiz-adv-x="1408" arabic-form="final" d="M896 256h512v-256h-512v128h-128v256h-128v-128h-256v128h-128v384h128v128h384v128h128v-768zM384 512h384v128h-384v-128z" />
<glyph unicode="&#x647;" horiz-adv-x="1408" arabic-form="initial" d="M640 640v128h-128v256h128v-128h128v-128h128v-128h128v-128h128v-384h-128v-128h-1024v256h384v256h128v128h128zM768 256v128h-256v-128h256zM896 384v-128h128v128h-128z" />
<glyph unicode="&#x647;" horiz-adv-x="1408" arabic-form="medial" d="M896 -384h-256v128h-128v256h-512v256h512v384h128v128h256v-128h128v-256h-128v128h-256v-256h128v128h128v-128h512v-256h-384v-256h-128v-128zM896 0h-128v128h-128v-256h256v128z" />
<glyph unicode="&#x648;" horiz-adv-x="1408" arabic-form="final" d="M896 -256h-128v-128h-256v256h256v128h-256v128h-128v384h128v128h384v-128h128v-256h384v-256h-512v-256zM512 256h384v128h-384v-128z" />
<glyph unicode="&#x649;" horiz-adv-x="1408" arabic-form="final" d="M128 0h-128v384h128v-256h640v128h-128v384h128v128h256v-128h128v-128h128v-128h128v-256h-128v128h-128v128h-128v128h-256v-128h128v-128h128v-256h-128v-128h-768v128z" />
<glyph unicode="&#x64a;" horiz-adv-x="1408" arabic-form="final" d="M128 0h-128v384h128v-256h640v128h-128v384h128v128h256v-128h128v-128h128v-128h128v-256h-128v128h-128v128h-128v128h-256v-128h128v-128h128v-256h-128v-128h-768v128zM512 -256h128v-128h-128v128zM256 -256h128v-128h-128v128z" />
<glyph unicode="&#x64a;" horiz-adv-x="1408" arabic-form="initial" d="M768 0h-768v256h768v384h128v-512h-128v-128zM640 -128h128v-128h-128v128zM896 -128h128v-128h-128v128z" />
<glyph unicode="&#x64a;" horiz-adv-x="1408" arabic-form="medial" d="M768 128h-128v-128h-640v256h640v256h128v-256h640v-256h-640v128zM768 -128h128v-128h-128v128zM512 -128h128v-128h-128v128z" />
<glyph d="M128 1152h768v-1152h-768v1152z" />
<glyph d="M128 1152h768v-1152h-768v1152z" />
<glyph unicode="&#xd;" d="M128 1152h768v-1152h-768v1152z" />
<glyph d="M128 1152h768v-1152h-768v1152z" />
<glyph d="M128 896h896v-1152h-896v1152zM768 0v128h128v128h-128v128h128v128h-128v128h-512v-640h512zM256 1152h-128v256h128v-256h256v-128h-256v128zM768 1152h-128v256h128v-256h256v-128h-256v128zM256 1536h256v-128h-256v128zM768 1536h256v-128h-256v128zM512 384v128 h128v-128h-128zM512 128v128h128v-128h-128z" />
<glyph d="M128 896h896v-1152h-896v1152zM512 128v384h128v-128h256v128h-128v128h-384v-128h-128v-384h128v-128h384v128h128v128h-256v-128h-128zM256 1152h-128v256h128v-256h256v-128h-256v128zM768 1152h-128v256h128v-256h256v-128h-256v128zM256 1536h256v-128h-256v128z M768 1536h256v-128h-256v128z" />
<glyph d="M128 1152h768v-1152h-768v1152z" />
<glyph d="M128 1152h768v-1152h-768v1152z" />
<glyph d="M128 1152h768v-1152h-768v1152z" />
<glyph d="M128 1152h768v-1152h-768v1152z" />
<glyph d="M128 1152h768v-1152h-768v1152z" />
<glyph unicode="&#x9;" d="M128 1152h768v-1152h-768v1152z" />
<glyph unicode="&#xa;" d="M128 1152h768v-1152h-768v1152z" />
<glyph d="M128 1152h768v-1152h-768v1152z" />
<glyph d="M128 1152h768v-1152h-768v1152z" />
<glyph d="M128 1152h768v-1152h-768v1152z" />
<glyph d="M128 896h896v-1152h-896v1152zM896 512h-128v128h-384v-128h-128v-384h128v-128h384v128h128v384zM256 1152h-128v256h128v-256h256v-128h-256v128zM768 1152h-128v256h128v-256h256v-128h-256v128zM512 128v384h128v-384h-128zM768 1536h256v-128h-256v128zM256 1536 h256v-128h-256v128z" />
<glyph d="M128 1152h768v-1152h-768v1152z" />
<glyph d="M128 1152h768v-1152h-768v1152z" />
<glyph d="M128 1152h768v-1152h-768v1152z" />
<glyph d="M128 1152h768v-1152h-768v1152z" />
<glyph d="M128 1152h768v-1152h-768v1152z" />
<glyph d="M128 1152h768v-1152h-768v1152z" />
<glyph d="M128 896h896v-1152h-896v1152zM896 0v256h-128v128h128v128h-128v128h-512v-640h256v256h128v-256h256zM512 384v128h128v-128h-128zM256 1152h-128v256h128v-256h256v-128h-256v128zM768 1152h-128v256h128v-256h256v-128h-256v128zM256 1536h256v-128h-256v128z M768 1536h256v-128h-256v128z" />
<glyph d="M128 1152h768v-1152h-768v1152z" />
<glyph d="M128 1152h768v-1152h-768v1152z" />
<glyph d="M128 1152h768v-1152h-768v1152z" />
<glyph d="M128 1152h768v-1152h-768v1152z" />
<glyph d="M128 1152h768v-1152h-768v1152z" />
<glyph d="M128 1152h768v-1152h-768v1152z" />
<glyph d="M128 1152h768v-1152h-768v1152z" />
<glyph d="M128 1152h768v-1152h-768v1152z" />
<glyph d="M128 896h896v-1152h-896v1152zM512 640h-256v-512h128v-128h384v128h128v512h-256v-512h-128v384v128zM256 1152h-128v256h128v-256h256v-128h-256v128zM768 1152h-128v256h128v-256h256v-128h-256v128zM256 1536h256v-128h-256v128zM768 1536h256v-128h-256v128z" />
<glyph unicode=" " />
<glyph unicode="!" d="M768 640h-128v-256h-256v256h-128v384h128v128h256v-128h128v-384zM640 0h-256v256h256v-256z" />
<glyph unicode="&#x22;" d="M896 768h-256v384h256v-384zM384 768h-256v384h256v-384z" />
<glyph unicode="#" d="M1024 256h-128v-256h-256v256h-128v-256h-256v256h-128v128h128v384h-128v128h128v256h256v-256h128v256h256v-256h128v-128h-128v-384h128v-128zM640 384v384h-128v-384h128z" />
<glyph unicode="$" d="M896 128h-128v-128h-128v-256h-256v256h-128v128h-128v128h256v-128h256v256h-128v128h-128v128h-128v128h-128v256h128v128h128v256h256v-256h128v-128h128v-128h-256v128h-256v-256h128v-128h128v-128h128v-128h128v-256z" />
<glyph unicode="%" d="M1024 0h-128v-128h-384v128h-128v256h-128v-128h-128v256h128v128h128v128h128v128h-384v128h-128v256h128v128h384v-128h128v-256h128v128h128v-256h-128v-128h-128v-128h-128v-128h384v-128h128v-256zM640 768v128h-128v-128h128zM384 896v256h-128v-256h128zM768 0 v256h-128v-256h128zM512 256v128h-128v-128h128z" />
<glyph unicode="&#x26;" d="M1024 0h-256v128h-128v-128h-384v128h-128v512h128v128h-128v256h128v128h384v-128h128v-256h-128v-128h-256v-512h256v256h-128v128h512v-128h-128v-256h128v-128zM512 768v256h-128v-256h128z" />
<glyph unicode="'" d="M640 768h-256v384h256v-384z" />
<glyph unicode="(" d="M768 -256h-256v128h-128v256h-128v640h128v256h128v128h256v-128h-128v-256h-128v-640h128v-256h128v-128z" />
<glyph unicode=")" d="M768 128h-128v-256h-128v-128h-256v128h128v256h128v640h-128v256h-128v128h256v-128h128v-256h128v-640z" />
<glyph unicode="*" d="M1024 512h-256v-128h128v-128h-256v128h-128v-128h-256v128h128v128h-256v128h256v128h-128v128h256v-128h128v128h256v-128h-128v-128h256v-128z" />
<glyph unicode="+" d="M896 512h-256v-256h-256v256h-256v128h256v256h256v-256h256v-128z" />
<glyph unicode="," d="M768 -128h-128v-128h-256v128h128v128h-128v256h384v-384z" />
<glyph unicode="-" d="M896 512h-768v128h768v-128z" />
<glyph unicode="." d="M768 0h-384v256h384v-256z" />
<glyph unicode="/" d="M896 896h-128v-256h-128v-256h-128v-256h-128v-256h-256v256h128v256h128v256h128v256h128v256h256v-256z" />
<glyph unicode="0" d="M1024 128h-128v-128h-512v128h-128v896h128v128h512v-128h128v-896zM768 128v512h-128v256h128v128h-256v-512h128v-256h-128v-128h256z" />
<glyph unicode="1" d="M768 0h-256v768h-384v128h256v128h128v128h256v-1152z" />
<glyph unicode="2" d="M896 0h-768v256h128v128h128v128h128v128h128v384h-256v-256h-256v256h128v128h512v-128h128v-384h-128v-128h-128v-128h-128v-128h-128v-128h512v-128z" />
<glyph unicode="3" d="M896 128h-128v-128h-512v128h-128v256h256v-256h256v384h-256v128h256v384h-256v-256h-256v256h128v128h512v-128h128v-384h-128v-128h128v-384z" />
<glyph unicode="4" d="M1024 256h-128v-256h-256v256h-512v256h128v640h256v-640h-128v-128h256v512h256v-512h128v-128z" />
<glyph unicode="5" d="M896 256h-128v-128h-128v-128h-512v128h384v128h128v256h-512v640h768v-128h-512v-384h384v-128h128v-256z" />
<glyph unicode="6" d="M896 128h-128v-128h-512v128h-128v640h128v128h128v256h384v-128h-128v-128h-128v-128h256v-128h128v-512zM640 128v512h-256v-512h256z" />
<glyph unicode="7" d="M896 896h-128v-256h-128v-256h-128v-384h-256v384h128v256h128v256h128v128h-512v128h768v-256z" />
<glyph unicode="8" d="M896 128h-128v-128h-512v128h-128v384h128v128h-128v384h128v128h512v-128h128v-384h-128v-128h128v-384zM640 640v384h-256v-256h128v-128h128zM640 128v256h-128v128h-128v-384h256z" />
<glyph unicode="9" d="M896 384h-128v-128h-128v-256h-384v128h128v128h128v128h-256v128h-128v512h128v128h512v-128h128v-640zM640 512v512h-256v-512h256z" />
<glyph unicode=":" d="M768 640h-384v256h384v-256zM768 0h-384v256h384v-256z" />
<glyph unicode=";" d="M768 640h-384v256h384v-256zM768 -128h-128v-128h-256v128h128v128h-128v256h384v-384z" />
<glyph unicode="&#x3c;" d="M896 0h-256v128h-128v128h-128v128h-128v128h-128v128h128v128h128v128h128v128h128v128h256v-128h-128v-128h-128v-128h-128v-128h-128v-128h128v-128h128v-128h128v-128h128v-128z" />
<glyph unicode="=" d="M896 640h-768v128h768v-128zM896 384h-768v128h768v-128z" />
<glyph unicode="&#x3e;" d="M896 512h-128v-128h-128v-128h-128v-128h-128v-128h-256v128h128v128h128v128h128v128h128v128h-128v128h-128v128h-128v128h-128v128h256v-128h128v-128h128v-128h128v-128h128v-128z" />
<glyph unicode="?" d="M896 768h-128v-128h-128v-256h-256v256h128v128h128v256h-256v-256h-256v256h128v128h512v-128h128v-256zM640 0h-256v256h256v-256z" />
<glyph unicode="@" d="M1024 0h-896v128h-128v896h128v128h768v-128h128v-768h-512v128h-128v256h128v128h256v256h-512v-896h768v-128zM768 384v256h-128v-256h128z" />
<glyph unicode="A" d="M896 0h-256v384h-256v-384h-256v896h128v128h128v128h256v-128h128v-128h128v-896zM640 512v384h-256v-384h256z" />
<glyph unicode="B" d="M896 128h-128v-128h-640v1152h640v-128h128v-384h-128v-128h128v-384zM640 640v384h-256v-384h256zM640 128v384h-256v-384h256z" />
<glyph unicode="C" d="M896 128h-128v-128h-512v128h-128v896h128v128h512v-128h128v-256h-256v256h-256v-896h256v256h256v-256z" />
<glyph unicode="D" d="M896 256h-128v-128h-128v-128h-512v1152h512v-128h128v-128h128v-640zM640 256v640h-128v128h-128v-896h128v128h128z" />
<glyph unicode="E" d="M896 0h-768v1152h768v-128h-512v-384h384v-128h-384v-384h512v-128z" />
<glyph unicode="F" d="M896 1024h-512v-384h384v-128h-384v-512h-256v1152h768v-128z" />
<glyph unicode="G" d="M896 0h-640v128h-128v896h128v128h512v-128h128v-256h-256v256h-256v-896h256v256h-128v128h384v-512z" />
<glyph unicode="H" d="M896 0h-256v512h-256v-512h-256v1152h256v-512h256v512h256v-1152z" />
<glyph unicode="I" d="M768 0h-512v128h128v896h-128v128h512v-128h-128v-896h128v-128z" />
<glyph unicode="J" d="M896 128h-128v-128h-512v128h-128v256h256v-256h256v1024h256v-1024z" />
<glyph unicode="K" d="M896 0h-256v256h-128v256h-128v-512h-256v1152h256v-512h128v256h128v256h256v-256h-128v-256h-128v-128h128v-256h128v-256z" />
<glyph unicode="L" d="M896 0h-768v1152h256v-1024h512v-128z" />
<glyph unicode="M" d="M1024 0h-256v768h-128v-384h-128v384h-128v-768h-256v1152h256v-256h128v-128h128v128h128v256h256v-1152z" />
<glyph unicode="N" d="M1024 0h-256v384h-128v128h-128v128h-128v-640h-256v1152h256v-256h128v-128h128v-128h128v512h256v-1152z" />
<glyph unicode="O" d="M896 128h-128v-128h-512v128h-128v896h128v128h512v-128h128v-896zM640 128v896h-256v-896h256z" />
<glyph unicode="P" d="M896 640h-128v-128h-384v-512h-256v1152h640v-128h128v-384zM640 640v384h-256v-384h256z" />
<glyph unicode="Q" d="M896 -256h-256v128h-128v128h-256v128h-128v896h128v128h512v-128h128v-896h-128v-256h128v-128zM640 128v896h-256v-896h256z" />
<glyph unicode="R" d="M896 0h-256v384h-128v128h-128v-512h-256v1152h640v-128h128v-384h-128v-256h128v-384zM640 640v384h-256v-384h256z" />
<glyph unicode="S" d="M896 128h-128v-128h-512v128h-128v128h256v-128h256v256h-128v128h-128v128h-128v128h-128v256h128v128h512v-128h128v-128h-256v128h-256v-256h128v-128h128v-128h128v-128h128v-256z" />
<glyph unicode="T" d="M896 1024h-256v-1024h-256v1024h-256v128h768v-128z" />
<glyph unicode="U" d="M896 128h-128v-128h-512v128h-128v1024h256v-1024h256v1024h256v-1024z" />
<glyph unicode="V" d="M896 256h-128v-128h-128v-128h-256v128h-128v128h-128v896h256v-896h256v896h256v-896z" />
<glyph unicode="W" d="M1024 384h-128v-384h-256v384h-128v-384h-256v384h-128v768h256v-768h128v384h128v-384h128v768h256v-768z" />
<glyph unicode="X" d="M896 0h-256v384h-128v128h-128v-512h-256v384h128v128h128v256h-128v128h-128v256h256v-256h128v-128h128v384h256v-256h-128v-128h-128v-256h128v-128h128v-384z" />
<glyph unicode="Y" d="M896 640h-128v-128h-128v-512h-256v512h-128v128h-128v512h256v-512h256v512h256v-512z" />
<glyph unicode="Z" d="M896 0h-768v384h128v128h128v128h128v128h128v256h-512v128h768v-384h-128v-128h-128v-128h-128v-128h-128v-256h512v-128z" />
<glyph unicode="[" d="M768 -384h-512v1536h512v-128h-256v-1280h256v-128z" />
<glyph unicode="\" d="M896 -128h-256v256h-128v256h-128v256h-128v256h-128v256h256v-256h128v-256h128v-256h128v-256h128v-256z" />
<glyph unicode="]" d="M768 -384h-512v128h256v1280h-256v128h512v-1536z" />
<glyph unicode="^" d="M896 1024h-256v128h-256v-128h-256v128h128v128h128v128h256v-128h128v-128h128v-128z" />
<glyph unicode="_" d="M1024 -384h-1024v128h1024v-128z" />
<glyph unicode="`" d="M768 1024h-256v128h-128v128h-128v128h384v-256h128v-128z" />
<glyph unicode="a" d="M896 0h-640v128h-128v256h128v128h384v256h-384v128h512v-128h128v-768zM640 128v256h-256v-256h256z" />
<glyph unicode="b" d="M896 128h-128v-128h-640v1152h256v-256h384v-128h128v-640zM640 128v640h-256v-640h256z" />
<glyph unicode="c" d="M896 128h-128v-128h-512v128h-128v640h128v128h512v-128h128v-128h-256v128h-256v-640h256v128h256v-128z" />
<glyph unicode="d" d="M896 0h-640v128h-128v640h128v128h384v256h256v-1152zM640 128v640h-256v-640h256z" />
<glyph unicode="e" d="M896 384h-512v-256h384v-128h-512v128h-128v640h128v128h512v-128h128v-384zM640 512v256h-256v-256h256z" />
<glyph unicode="f" d="M896 512h-384v-512h-256v512h-128v128h128v384h128v128h512v-128h-384v-384h384v-128z" />
<glyph unicode="g" d="M896 -256h-128v-128h-640v128h512v256h-384v128h-128v640h128v128h640v-1152zM640 128v640h-256v-640h256z" />
<glyph unicode="h" d="M896 0h-256v768h-256v-768h-256v1152h256v-256h384v-128h128v-768z" />
<glyph unicode="i" d="M640 1024h-256v256h256v-256zM896 0h-768v128h256v640h-256v128h512v-768h256v-128z" />
<glyph unicode="j" d="M768 1024h-256v256h256v-256zM768 -256h-128v-128h-512v128h384v1024h-256v128h512v-1152z" />
<glyph unicode="k" d="M896 0h-256v256h-128v128h-128v-384h-256v1152h256v-640h128v128h128v256h256v-256h-128v-128h-128v-128h128v-128h128v-256z" />
<glyph unicode="l" d="M896 0h-768v128h256v896h-256v128h512v-1024h256v-128z" />
<glyph unicode="m" d="M1024 0h-256v768h-128v-640h-128v640h-128v-768h-256v896h768v-128h128v-768z" />
<glyph unicode="n" d="M896 0h-256v768h-256v-768h-256v896h640v-128h128v-768z" />
<glyph unicode="o" d="M896 128h-128v-128h-512v128h-128v640h128v128h512v-128h128v-640zM640 128v640h-256v-640h256z" />
<glyph unicode="p" d="M896 128h-128v-128h-384v-384h-256v1280h640v-128h128v-640zM640 128v640h-256v-640h256z" />
<glyph unicode="q" d="M896 -384h-256v384h-384v128h-128v640h128v128h640v-1280zM640 128v640h-256v-640h256z" />
<glyph unicode="r" d="M896 640h-384v-128h-128v-512h-256v896h256v-256h128v128h128v128h256v-256z" />
<glyph unicode="s" d="M896 128h-128v-128h-640v128h512v256h-384v128h-128v256h128v128h640v-128h-512v-256h384v-128h128v-256z" />
<glyph unicode="t" d="M896 0h-512v128h-128v640h-128v128h128v256h256v-256h384v-128h-384v-640h384v-128z" />
<glyph unicode="u" d="M896 0h-640v128h-128v768h256v-768h256v768h256v-896z" />
<glyph unicode="v" d="M896 256h-128v-128h-128v-128h-256v128h-128v128h-128v640h256v-640h256v640h256v-640z" />
<glyph unicode="w" d="M1024 256h-128v-256h-256v256h-128v-256h-256v256h-128v640h256v-640h128v512h128v-512h128v640h256v-640z" />
<glyph unicode="x" d="M896 0h-256v256h-256v-256h-256v256h128v128h128v128h-128v128h-128v256h256v-256h256v256h256v-256h-128v-128h-128v-128h128v-128h128v-256z" />
<glyph unicode="y" d="M896 128h-128v-256h-128v-128h-128v-128h-512v128h384v128h128v128h-256v128h-128v768h256v-768h256v768h256v-768z" />
<glyph unicode="z" d="M896 0h-768v256h128v128h128v128h128v128h128v128h-512v128h768v-256h-128v-128h-128v-128h-128v-128h-128v-128h512v-128z" />
<glyph unicode="{" d="M768 -256h-256v128h-128v384h-128v128h-128v128h128v128h128v384h128v128h256v-128h-128v-384h-128v-128h-128v-128h128v-128h128v-384h128v-128z" />
<glyph unicode="|" d="M640 -384h-256v1536h256v-1536z" />
<glyph unicode="}" d="M896 384h-128v-128h-128v-384h-128v-128h-256v128h128v384h128v128h128v128h-128v128h-128v384h-128v128h256v-128h128v-384h128v-128h128v-128z" />
<glyph unicode="~" d="M1024 896h-128v-128h-384v128h-128v128h-128v-128h-128v-128h-128v256h128v128h384v-128h128v-128h128v128h128v128h128v-256z" />
<glyph d="M128 1152h768v-1152h-768v1152z" />
<glyph d="M128 1152h768v-1152h-768v1152z" />
<glyph d="M128 1152h768v-1152h-768v1152z" />
<glyph d="M128 1152h768v-1152h-768v1152z" />
<glyph d="M128 1152h768v-1152h-768v1152z" />
<glyph d="M128 1152h768v-1152h-768v1152z" />
<glyph unicode="&#x85;" d="M128 1152h768v-1152h-768v1152z" />
<glyph d="M128 1152h768v-1152h-768v1152z" />
<glyph d="M128 1152h768v-1152h-768v1152z" />
<glyph d="M128 1152h768v-1152h-768v1152z" />
<glyph d="M128 1152h768v-1152h-768v1152z" />
<glyph d="M128 1152h768v-1152h-768v1152z" />
<glyph d="M128 1152h768v-1152h-768v1152z" />
<glyph d="M128 1152h768v-1152h-768v1152z" />
<glyph d="M128 1152h768v-1152h-768v1152z" />
<glyph d="M128 1152h768v-1152h-768v1152z" />
<glyph d="M128 1152h768v-1152h-768v1152z" />
<glyph d="M128 1152h768v-1152h-768v1152z" />
<glyph d="M768 640h-384v384h128v128h256v-128h-128v-128h128v-256z" />
<glyph d="M768 768h-128v-128h-256v128h128v128h-128v256h384v-384z" />
<glyph d="M128 1152h768v-1152h-768v1152z" />
<glyph d="M128 1152h768v-1152h-768v1152z" />
<glyph d="M128 1152h768v-1152h-768v1152z" />
<glyph d="M128 1152h768v-1152h-768v1152z" />
<glyph d="M128 1152h768v-1152h-768v1152z" />
<glyph d="M128 1152h768v-1152h-768v1152z" />
<glyph d="M128 1152h768v-1152h-768v1152z" />
<glyph d="M128 1152h768v-1152h-768v1152z" />
<glyph d="M128 1152h768v-1152h-768v1152z" />
<glyph d="M128 1152h768v-1152h-768v1152z" />
<glyph d="M128 1152h768v-1152h-768v1152z" />
<glyph d="M128 1152h768v-1152h-768v1152z" />
<glyph d="M128 1152h768v-1152h-768v1152z" />
<glyph unicode="&#xa0;" />
<glyph unicode="&#xa1;" d="M768 -256h-128v-128h-256v128h-128v384h128v256h256v-256h128v-384zM640 512h-256v256h256v-256z" />
<glyph unicode="&#xa2;" d="M896 256h-128v-128h-128v-256h-256v256h-128v128h-128v512h128v128h128v256h256v-256h128v-128h128v-128h-256v128h-256v-512h256v128h256v-128z" />
<glyph unicode="&#xa3;" d="M896 0h-896v256h128v256h-128v128h128v384h128v128h512v-128h128v-128h-256v128h-256v-384h384v-128h-384v-256h-128v-128h640v-128z" />
<glyph unicode="&#xa4;" d="M896 256h-256v128h-256v-128h-256v128h128v128h-128v256h128v128h-128v128h256v-128h256v128h256v-128h-128v-128h128v-256h-128v-128h128v-128zM640 512v256h-256v-256h256z" />
<glyph unicode="&#xa5;" d="M896 256h-256v-256h-256v256h-256v128h256v128h-256v128h128v128h-128v384h256v-384h256v384h256v-384h-128v-128h128v-128h-256v-128h256v-128z" />
<glyph unicode="&#xa6;" d="M640 512h-256v640h256v-640zM640 -384h-256v640h256v-640z" />
<glyph unicode="&#xa7;" d="M896 -256h-128v-128h-512v128h-128v128h256v-128h256v256h-256v128h-128v128h-128v256h128v256h-128v256h128v128h512v-128h128v-128h-256v128h-256v-256h256v-128h128v-128h128v-256h-128v-256h128v-256zM640 256v256h-256v-256h256z" />
<glyph unicode="&#xa8;" d="M896 1024h-256v256h256v-256zM384 1024h-256v256h256v-256z" />
<glyph unicode="&#xa9;" d="M1024 128h-128v-128h-768v128h-128v896h128v128h768v-128h128v-896zM896 256v640h-128v128h-512v-128h-128v-640h128v-128h512v128h128zM640 256h-256v128h-128v384h128v-384h256v-128zM384 896h256v-128h128v-128h-128v128h-256v128zM768 384h-128v128h128v-128z" />
<glyph unicode="&#xaa;" d="M896 512h-640v128h-128v128h128v128h384v128h-384v128h512v-128h128v-512zM896 256h-768v128h768v-128zM640 640v128h-256v-128h256z" />
<glyph unicode="&#xab;" d="M1024 0h-256v128h-128v128h-128v128h128v128h128v128h256v-128h-128v-128h-128v-128h128v-128h128v-128zM512 0h-256v128h-128v128h-128v128h128v128h128v128h256v-128h-128v-128h-128v-128h128v-128h128v-128z" />
<glyph unicode="&#xac;" d="M896 256h-256v256h-512v128h768v-384z" />
<glyph unicode="&#xad;" d="M896 512h-768v128h768v-128z" />
<glyph unicode="&#xae;" d="M1024 128h-128v-128h-768v128h-128v896h128v128h768v-128h128v-896zM768 512h-128v256h-256v-256h256v-128h128v-128h128v640h-128v128h-512v-128h384v-128h128v-256zM768 256h-128v128h-256v-128h-128v640h-128v-640h128v-128h512v128z" />
<glyph unicode="&#xaf;" d="M1024 1408h-1024v128h1024v-128z" />
<glyph unicode="&#xb0;" d="M896 896h-128v-128h-512v128h-128v256h128v128h512v-128h128v-256zM640 896v256h-256v-256h256z" />
<glyph unicode="&#xb1;" d="M896 512h-256v-256h-256v256h-256v128h256v256h256v-256h256v-128zM896 0h-768v128h768v-128z" />
<glyph unicode="&#xb2;" d="M768 512h-512v256h128v128h128v128h-256v128h384v-128h128v-128h-128v-128h-128v-128h256v-128z" />
<glyph unicode="&#xb3;" d="M768 640h-128v-128h-384v128h256v128h-128v128h128v128h-256v128h384v-128h128v-128h-128v-128h128v-128z" />
<glyph unicode="&#xb4;" d="M768 1280h-128v-128h-128v-128h-256v128h128v256h384v-128z" />
<glyph unicode="&#xb5;" d="M640 0h-256v-256h-128v-128h-256v128h128v1152h256v-768h256v-128zM1024 0h-256v128h-128v768h256v-768h128v-128z" />
<glyph unicode="&#xb6;" d="M1024 1024h-128v-1408h-256v640h-256v128h-128v128h-128v384h128v128h128v128h640v-128z" />
<glyph unicode="&#xb7;" d="M768 512h-384v256h384v-256z" />
<glyph unicode="&#xb8;" d="M768 -256h-128v-128h-384v128h256v128h-128v128h256v-128h128v-128z" />
<glyph unicode="&#xb9;" d="M640 512h-256v384h-128v128h128v128h256v-640z" />
<glyph unicode="&#xba;" d="M896 640h-128v-128h-512v128h-128v384h128v128h512v-128h128v-384zM640 640v384h-256v-384h256zM896 256h-768v128h768v-128z" />
<glyph unicode="&#xbb;" d="M1024 256h-128v-128h-128v-128h-256v128h128v128h128v128h-128v128h-128v128h256v-128h128v-128h128v-128zM512 256h-128v-128h-128v-128h-256v128h128v128h128v128h-128v128h-128v128h256v-128h128v-128h128v-128z" />
<glyph unicode="&#xbc;" d="M1024 -128h-256v128h-384v256h-128v-128h-256v128h128v128h128v128h128v128h-256v384h-128v128h128v128h256v-640h128v128h128v128h128v128h256v-128h-128v-128h-128v-128h-128v-128h384v-640zM512 256v128h-128v-128h128zM768 128v128h-128v-128h128zM640 384v128h-128 v-128h128z" />
<glyph unicode="&#xbd;" d="M1024 -128h-512v256h128v128h128v128h-384v-128h-128v-128h-256v128h128v128h128v128h128v128h-256v384h-128v128h128v128h256v-640h128v128h128v128h128v128h256v-128h-128v-128h-128v-128h-128v-128h256v-128h128v-128h-128v-128h-128v-128h256v-128z" />
<glyph unicode="&#xbe;" d="M1024 -128h-256v128h-384v256h-128v-128h-256v128h128v128h128v128h128v128h-384v128h256v128h-128v128h128v128h-256v128h384v-128h128v-128h-128v-128h128v-128h128v128h128v128h256v-128h-128v-128h-128v-128h-128v-128h384v-640zM512 256v128h-128v-128h128zM768 128 v128h-128v-128h128zM640 384v128h-128v-128h128zM512 640v128h-128v-128h128z" />
<glyph unicode="&#xbf;" d="M896 -256h-128v-128h-512v128h-128v256h128v128h128v256h256v-256h-128v-128h-128v-256h256v256h256v-256zM640 512h-256v256h256v-256z" />
<glyph unicode="&#xc0;" d="M896 0h-256v384h-256v-384h-256v896h128v128h128v128h256v-128h128v-128h128v-896zM640 512v384h-256v-384h256zM640 1280h-256v128h-128v128h256v-128h128v-128z" />
<glyph unicode="&#xc1;" d="M896 0h-256v384h-256v-384h-256v896h128v128h128v128h256v-128h128v-128h128v-896zM640 512v384h-256v-384h256zM768 1408h-128v-128h-256v128h128v128h256v-128z" />
<glyph unicode="&#xc2;" d="M384 1152h256v-128h128v-128h128v-896h-256v384h-256v-384h-256v896h128v128h128v128zM640 512v384h-256v-384h256zM640 1408h-256v-128h-256v128h128v128h128v128h256v-128h128v-128h128v-128h-256v128z" />
<glyph unicode="&#xc3;" d="M896 0h-256v384h-256v-384h-256v896h128v128h128v128h256v-128h128v-128h128v-896zM1024 1408h-128v-128h-384v128h-128v-128h-256v128h128v128h384v-128h128v128h256v-128zM640 512v384h-256v-384h256z" />
<glyph unicode="&#xc4;" d="M896 0h-256v384h-256v-384h-256v896h128v128h128v128h256v-128h128v-128h128v-896zM640 512v384h-256v-384h256zM896 1280h-256v256h256v-256zM384 1280h-256v256h256v-256z" />
<glyph unicode="&#xc5;" d="M896 0h-256v384h-256v-384h-256v896h128v128h128v128h256v-128h128v-128h128v-896zM256 1280v128h-128v128h128v128h512v-128h128v-128h-128v-128h-512zM640 512v384h-256v-384h256zM640 1408v128h-256v-128h256z" />
<glyph unicode="&#xc6;" d="M1024 0h-512v384h-128v-384h-256v896h128v128h128v128h640v-128h-256v-384h256v-128h-256v-384h256v-128zM512 512v384h-128v-384h128z" />
<glyph unicode="&#xc7;" d="M896 128h-128v-128h-128v-128h128v-128h-128v-128h-384v128h256v128h-128v128h-128v128h-128v896h128v128h512v-128h128v-256h-256v256h-256v-896h256v256h256v-256z" />
<glyph unicode="&#xc8;" d="M896 0h-768v1152h768v-128h-512v-384h384v-128h-384v-384h512v-128zM640 1280h-256v128h-128v128h256v-128h128v-128z" />
<glyph unicode="&#xc9;" d="M896 0h-768v1152h768v-128h-512v-384h384v-128h-384v-384h512v-128zM768 1408h-128v-128h-256v128h128v128h256v-128z" />
<glyph unicode="&#xca;" d="M896 0h-768v1152h768v-128h-512v-384h384v-128h-384v-384h512v-128zM640 1408h-256v-128h-256v128h128v128h128v128h256v-128h128v-128h128v-128h-256v128z" />
<glyph unicode="&#xcb;" d="M896 0h-768v1152h768v-128h-512v-384h384v-128h-384v-384h512v-128zM896 1280h-256v256h256v-256zM384 1280h-256v256h256v-256z" />
<glyph unicode="&#xcc;" d="M768 0h-512v128h128v896h-128v128h512v-128h-128v-896h128v-128zM640 1280h-256v128h-128v128h256v-128h128v-128z" />
<glyph unicode="&#xcd;" d="M768 0h-512v128h128v896h-128v128h512v-128h-128v-896h128v-128zM768 1408h-128v-128h-256v128h128v128h256v-128z" />
<glyph unicode="&#xce;" d="M768 0h-512v128h128v896h-128v128h512v-128h-128v-896h128v-128zM640 1408h-256v-128h-256v128h128v128h128v128h256v-128h128v-128h128v-128h-256v128z" />
<glyph unicode="&#xcf;" d="M768 0h-512v128h128v896h-128v128h512v-128h-128v-896h128v-128zM896 1280h-256v256h256v-256zM384 1280h-256v256h256v-256z" />
<glyph unicode="&#xd0;" d="M896 256h-128v-128h-128v-128h-512v512h-128v128h128v512h512v-128h128v-128h128v-640zM640 256v640h-128v128h-128v-384h128v-128h-128v-384h128v128h128z" />
<glyph unicode="&#xd1;" d="M1024 0h-256v384h-128v128h-128v128h-128v-640h-256v1152h256v-256h128v-128h128v-128h128v512h256v-1152zM1024 1408h-128v-128h-384v128h-128v-128h-256v128h128v128h384v-128h128v128h256v-128z" />
<glyph unicode="&#xd2;" d="M896 128h-128v-128h-512v128h-128v896h128v128h512v-128h128v-896zM640 128v896h-256v-896h256zM640 1280h-256v128h-128v128h256v-128h128v-128z" />
<glyph unicode="&#xd3;" d="M896 128h-128v-128h-512v128h-128v896h128v128h512v-128h128v-896zM640 128v896h-256v-896h256zM768 1408h-128v-128h-256v128h128v128h256v-128z" />
<glyph unicode="&#xd4;" d="M896 128h-128v-128h-512v128h-128v896h128v128h512v-128h128v-896zM640 128v896h-256v-896h256zM640 1408h-256v-128h-256v128h128v128h128v128h256v-128h128v-128h128v-128h-256v128z" />
<glyph unicode="&#xd5;" d="M896 128h-128v-128h-512v128h-128v896h128v128h512v-128h128v-896zM640 128v896h-256v-896h256zM1024 1408h-128v-128h-384v128h-128v-128h-256v128h128v128h384v-128h128v128h256v-128z" />
<glyph unicode="&#xd6;" d="M896 128h-128v-128h-512v128h-128v896h128v128h512v-128h128v-896zM640 128v896h-256v-896h256zM896 1280h-256v256h256v-256zM384 1280h-256v256h256v-256z" />
<glyph unicode="&#xd7;" d="M896 128h-128v128h-128v128h-256v-128h-128v-128h-128v256h128v128h128v128h-128v128h-128v256h128v-128h128v-128h256v128h128v128h128v-256h-128v-128h-128v-128h128v-128h128v-256z" />
<glyph unicode="&#xd8;" d="M896 128h-128v-128h-640v1024h128v128h640v-1024zM640 128v384h-128v-256h-128v-128h256zM640 896v128h-256v-384h128v256h128z" />
<glyph unicode="&#xd9;" d="M896 128h-128v-128h-512v128h-128v1024h256v-1024h256v1024h256v-1024zM640 1280h-256v128h-128v128h256v-128h128v-128z" />
<glyph unicode="&#xda;" d="M896 128h-128v-128h-512v128h-128v1024h256v-1024h256v1024h256v-1024zM768 1408h-128v-128h-256v128h128v128h256v-128z" />
<glyph unicode="&#xdb;" d="M896 128h-128v-128h-512v128h-128v1024h256v-1024h256v1024h256v-1024zM640 1408h-256v-128h-256v128h128v128h128v128h256v-128h128v-128h128v-128h-256v128z" />
<glyph unicode="&#xdc;" d="M896 128h-128v-128h-512v128h-128v1024h256v-1024h256v1024h256v-1024zM896 1280h-256v256h256v-256zM384 1280h-256v256h256v-256z" />
<glyph unicode="&#xdd;" d="M896 640h-128v-128h-128v-512h-256v512h-128v128h-128v512h256v-512h256v512h256v-512zM768 1408h-128v-128h-256v128h128v128h256v-128z" />
<glyph unicode="&#xde;" d="M896 384h-128v-128h-384v-256h-256v1152h256v-256h384v-128h128v-384zM640 384v384h-256v-384h256z" />
<glyph unicode="&#xdf;" d="M896 128h-128v-128h-256v128h128v512h-128v384h-128v-1024h-256v1024h128v128h384v-128h128v-384h128v-512z" />
<glyph unicode="&#xe0;" d="M896 0h-640v128h-128v256h128v128h384v256h-384v128h512v-128h128v-768zM640 1024h-256v128h-128v128h-128v128h384v-256h128v-128zM640 128v256h-256v-256h256z" />
<glyph unicode="&#xe1;" d="M896 0h-640v128h-128v256h128v128h384v256h-384v128h512v-128h128v-768zM896 1280h-128v-128h-128v-128h-256v128h128v256h384v-128zM640 128v256h-256v-256h256z" />
<glyph unicode="&#xe2;" d="M896 0h-640v128h-128v256h128v128h384v256h-384v128h512v-128h128v-768zM896 1024h-256v128h-256v-128h-256v128h128v128h128v128h256v-128h128v-128h128v-128zM640 128v256h-256v-256h256z" />
<glyph unicode="&#xe3;" d="M896 0h-640v128h-128v256h128v128h384v256h-384v128h512v-128h128v-768zM640 128v256h-256v-256h256zM1024 1152h-128v-128h-384v128h-128v-128h-256v128h128v128h384v-128h128v128h256v-128z" />
<glyph unicode="&#xe4;" d="M896 0h-640v128h-128v256h128v128h384v256h-384v128h512v-128h128v-768zM640 128v256h-256v-256h256zM896 1024h-256v256h256v-256zM384 1024h-256v256h256v-256z" />
<glyph unicode="&#xe5;" d="M896 0h-640v128h-128v256h128v128h384v256h-384v128h512v-128h128v-768zM896 1152h-128v-128h-512v128h-128v128h128v128h512v-128h128v-128zM640 128v256h-256v-256h256zM640 1152v128h-256v-128h256z" />
<glyph unicode="&#xe6;" d="M1024 0h-384v128h-128v-128h-384v128h-128v256h128v128h256v256h-256v128h256v-128h128v128h384v-128h128v-384h-384v-256h384v-128zM384 128v256h-128v-256h128zM768 512v256h-128v-256h128z" />
<glyph unicode="&#xe7;" d="M896 128h-128v-128h-128v-128h128v-128h-128v-128h-384v128h256v128h-128v128h-128v128h-128v640h128v128h512v-128h128v-128h-256v128h-256v-640h256v128h256v-128z" />
<glyph unicode="&#xe8;" d="M896 384h-512v-256h384v-128h-512v128h-128v640h128v128h512v-128h128v-384zM640 1024h-256v128h-128v128h-128v128h384v-256h128v-128zM640 512v256h-256v-256h256z" />
<glyph unicode="&#xe9;" d="M896 384h-512v-256h384v-128h-512v128h-128v640h128v128h512v-128h128v-384zM896 1280h-128v-128h-128v-128h-256v128h128v256h384v-128zM640 512v256h-256v-256h256z" />
<glyph unicode="&#xea;" d="M896 384h-512v-256h384v-128h-512v128h-128v640h128v128h512v-128h128v-384zM640 512v256h-256v-256h256zM896 1024h-256v128h-256v-128h-256v128h128v128h128v128h256v-128h128v-128h128v-128z" />
<glyph unicode="&#xeb;" d="M896 384h-512v-256h384v-128h-512v128h-128v640h128v128h512v-128h128v-384zM640 512v256h-256v-256h256zM896 1024h-256v256h256v-256zM384 1024h-256v256h256v-256z" />
<glyph unicode="&#xec;" d="M896 0h-768v128h256v640h-256v128h512v-768h256v-128zM640 1024h-256v128h-128v128h-128v128h384v-256h128v-128z" />
<glyph unicode="&#xed;" d="M896 0h-768v128h256v640h-256v128h512v-768h256v-128zM896 1280h-128v-128h-128v-128h-256v128h128v256h384v-128z" />
<glyph unicode="&#xee;" d="M896 0h-768v128h256v640h-256v128h512v-768h256v-128zM896 1024h-256v128h-256v-128h-256v128h128v128h128v128h256v-128h128v-128h128v-128z" />
<glyph unicode="&#xef;" d="M896 0h-768v128h256v640h-256v128h512v-768h256v-128zM896 1024h-256v256h256v-256zM384 1024h-256v256h256v-256z" />
<glyph unicode="&#xf0;" d="M640 128v512h-256v128h-256v128h256v-128h128v128h-128v128h-128v128h256v-128h128v-128h128v-128h128v-640h-128v-128h-512v128h-128v512h256v-512h256zM640 1152h256v-128h-256v128z" />
<glyph unicode="&#xf1;" d="M896 0h-256v768h-256v-768h-256v896h640v-128h128v-768zM1024 1152h-128v-128h-384v128h-128v-128h-256v128h128v128h384v-128h128v128h256v-128z" />
<glyph unicode="&#xf2;" d="M896 128h-128v-128h-512v128h-128v640h128v128h512v-128h128v-640zM640 128v640h-256v-640h256zM640 1024h-256v128h-128v128h-128v128h384v-256h128v-128z" />
<glyph unicode="&#xf3;" d="M896 128h-128v-128h-512v128h-128v640h128v128h512v-128h128v-640zM640 128v640h-256v-640h256zM896 1280h-128v-128h-128v-128h-256v128h128v256h384v-128z" />
<glyph unicode="&#xf4;" d="M896 128h-128v-128h-512v128h-128v640h128v128h512v-128h128v-640zM640 128v640h-256v-640h256zM896 1024h-256v128h-256v-128h-256v128h128v128h128v128h256v-128h128v-128h128v-128z" />
<glyph unicode="&#xf5;" d="M896 128h-128v-128h-512v128h-128v640h128v128h512v-128h128v-640zM640 128v640h-256v-640h256zM1024 1152h-128v-128h-384v128h-128v-128h-256v128h128v128h384v-128h128v128h256v-128z" />
<glyph unicode="&#xf6;" d="M896 128h-128v-128h-512v128h-128v640h128v128h512v-128h128v-640zM640 128v640h-256v-640h256zM896 1024h-256v256h256v-256zM384 1024h-256v256h256v-256z" />
<glyph unicode="&#xf7;" d="M896 512h-768v128h768v-128zM640 128h-256v256h256v-256zM640 768h-256v256h256v-256z" />
<glyph unicode="&#xf8;" d="M896 128h-128v-128h-640v768h128v128h640v-768zM640 128v256h-128v-128h-128v-128h256zM640 640v128h-256v-256h128v128h128z" />
<glyph unicode="&#xf9;" d="M896 0h-640v128h-128v768h256v-768h256v768h256v-896zM640 1024h-256v128h-128v128h-128v128h384v-256h128v-128z" />
<glyph unicode="&#xfa;" d="M896 0h-640v128h-128v768h256v-768h256v768h256v-896zM896 1280h-128v-128h-128v-128h-256v128h128v256h384v-128z" />
<glyph unicode="&#xfb;" d="M896 0h-640v128h-128v768h256v-768h256v768h256v-896zM896 1024h-256v128h-256v-128h-256v128h128v128h128v128h256v-128h128v-128h128v-128z" />
<glyph unicode="&#xfc;" d="M896 0h-640v128h-128v768h256v-768h256v768h256v-896zM896 1024h-256v256h256v-256zM384 1024h-256v256h256v-256z" />
<glyph unicode="&#xfd;" d="M896 128h-128v-256h-128v-128h-128v-128h-512v128h384v128h128v128h-256v128h-128v768h256v-768h256v768h256v-768zM896 1280h-128v-128h-128v-128h-256v128h128v256h384v-128z" />
<glyph unicode="&#xfe;" d="M896 128h-128v-128h-384v-384h-256v1536h256v-256h384v-128h128v-640zM640 128v640h-256v-640h256z" />
<glyph unicode="&#xff;" d="M896 128h-128v-256h-128v-128h-128v-128h-512v128h384v128h128v128h-256v128h-128v768h256v-768h256v768h256v-768zM896 1024h-256v256h256v-256zM384 1024h-256v256h256v-256z" />
<glyph unicode="&#x100;" d="M896 0h-256v384h-256v-384h-256v896h128v128h128v128h256v-128h128v-128h128v-896zM640 512v384h-256v-384h256zM896 1280h-768v128h768v-128z" />
<glyph unicode="&#x101;" d="M896 0h-640v128h-128v256h128v128h384v256h-384v128h512v-128h128v-768zM896 1024h-768v128h768v-128zM640 128v256h-256v-256h256z" />
<glyph unicode="&#x102;" d="M896 0h-256v384h-256v-384h-256v896h128v128h128v128h256v-128h128v-128h128v-896zM896 1408h-128v-128h-512v128h-128v128h256v-128h256v128h256v-128zM640 512v384h-256v-384h256z" />
<glyph unicode="&#x103;" d="M896 0h-640v128h-128v256h128v128h384v256h-384v128h512v-128h128v-768zM896 1152h-128v-128h-512v128h-128v128h256v-128h256v128h256v-128zM640 128v256h-256v-256h256z" />
<glyph unicode="&#x104;" d="M1024 -384h-384v128h-128v256h128v384h-256v-384h-256v896h128v128h128v128h256v-128h128v-128h128v-896h-128v-256h256v-128zM640 512v384h-256v-384h256z" />
<glyph unicode="&#x105;" d="M1024 -384h-384v128h-128v256h-256v128h-128v256h128v128h384v256h-384v128h512v-128h128v-768h-128v-256h256v-128zM640 128v256h-256v-256h256z" />
<glyph unicode="&#x106;" d="M896 128h-128v-128h-512v128h-128v896h128v128h512v-128h128v-256h-256v256h-256v-896h256v256h256v-256zM768 1408h-128v-128h-256v128h128v128h256v-128z" />
<glyph unicode="&#x107;" d="M896 128h-128v-128h-512v128h-128v640h128v128h512v-128h128v-128h-256v128h-256v-640h256v128h256v-128zM896 1280h-128v-128h-128v-128h-256v128h128v256h384v-128z" />
<glyph unicode="&#x108;" d="M896 128h-128v-128h-512v128h-128v896h128v128h512v-128h128v-256h-256v256h-256v-896h256v256h256v-256zM896 1280h-256v128h-256v-128h-256v128h128v128h128v128h256v-128h128v-128h128v-128z" />
<glyph unicode="&#x109;" d="M896 128h-128v-128h-512v128h-128v640h128v128h512v-128h128v-128h-256v128h-256v-640h256v128h256v-128zM896 1024h-256v128h-256v-128h-256v128h128v128h128v128h256v-128h128v-128h128v-128z" />
<glyph unicode="&#x10a;" d="M896 128h-128v-128h-512v128h-128v896h128v128h512v-128h128v-256h-256v256h-256v-896h256v256h256v-256zM640 1280h-256v256h256v-256z" />
<glyph unicode="&#x10b;" d="M896 128h-128v-128h-512v128h-128v640h128v128h512v-128h128v-128h-256v128h-256v-640h256v128h256v-128zM640 1024h-256v256h256v-256z" />
<glyph unicode="&#x10c;" d="M896 128h-128v-128h-512v128h-128v896h128v128h512v-128h128v-256h-256v256h-256v-896h256v256h256v-256zM896 1536h-128v-128h-128v-128h-256v128h-128v128h-128v128h256v-128h256v128h256v-128z" />
<glyph unicode="&#x10d;" d="M896 128h-128v-128h-512v128h-128v640h128v128h512v-128h128v-128h-256v128h-256v-640h256v128h256v-128zM896 1280h-128v-128h-128v-128h-256v128h-128v128h-128v128h256v-128h256v128h256v-128z" />
<glyph unicode="&#x10e;" d="M896 256h-128v-128h-128v-128h-512v1152h512v-128h128v-128h128v-640zM640 256v640h-128v128h-128v-896h128v128h128zM896 1536h-128v-128h-128v-128h-256v128h-128v128h-128v128h256v-128h256v128h256v-128z" />
<glyph unicode="&#x10f;" d="M768 0h-512v128h-128v640h128v128h256v256h256v-1152zM512 128v640h-128v-640h128zM1024 768h-128v384h128v-384z" />
<glyph unicode="&#x110;" d="M896 256h-128v-128h-128v-128h-512v512h-128v128h128v512h512v-128h128v-128h128v-640zM640 256v640h-128v128h-128v-384h128v-128h-128v-384h128v128h128z" />
<glyph unicode="&#x111;" d="M1024 1024h-128v-1024h-640v128h-128v640h128v128h384v128h-256v128h256v128h256v-128h128v-128zM640 128v640h-256v-640h256z" />
<glyph unicode="&#x112;" d="M896 0h-768v1152h768v-128h-512v-384h384v-128h-384v-384h512v-128zM896 1280h-768v128h768v-128z" />
<glyph unicode="&#x113;" d="M896 384h-512v-256h384v-128h-512v128h-128v640h128v128h512v-128h128v-384zM896 1024h-768v128h768v-128zM640 512v256h-256v-256h256z" />
<glyph unicode="&#x114;" d="M896 0h-768v1152h768v-128h-512v-384h384v-128h-384v-384h512v-128zM896 1408h-128v-128h-512v128h-128v128h256v-128h256v128h256v-128z" />
<glyph unicode="&#x115;" d="M896 384h-512v-256h384v-128h-512v128h-128v640h128v128h512v-128h128v-384zM896 1152h-128v-128h-512v128h-128v128h256v-128h256v128h256v-128zM640 512v256h-256v-256h256z" />
<glyph unicode="&#x116;" d="M896 0h-768v1152h768v-128h-512v-384h384v-128h-384v-384h512v-128zM640 1280h-256v256h256v-256z" />
<glyph unicode="&#x117;" d="M896 384h-512v-256h384v-128h-512v128h-128v640h128v128h512v-128h128v-384zM640 512v256h-256v-256h256zM640 1024h-256v256h256v-256z" />
<glyph unicode="&#x118;" d="M1024 -384h-384v128h-128v256h-384v1152h768v-128h-512v-384h384v-128h-384v-384h512v-128h-128v-256h256v-128z" />
<glyph unicode="&#x119;" d="M1024 -384h-384v128h-128v256h-256v128h-128v640h128v128h512v-128h128v-384h-512v-256h384v-384h256v-128zM640 512v256h-256v-256h256zM768 256h128v-128h-128v128z" />
<glyph unicode="&#x11a;" d="M896 0h-768v1152h768v-128h-512v-384h384v-128h-384v-384h512v-128zM896 1536h-128v-128h-128v-128h-256v128h-128v128h-128v128h256v-128h256v128h256v-128z" />
<glyph unicode="&#x11b;" d="M896 384h-512v-256h384v-128h-512v128h-128v640h128v128h512v-128h128v-384zM896 1280h-128v-128h-128v-128h-256v128h-128v128h-128v128h256v-128h256v128h256v-128zM640 512v256h-256v-256h256z" />
<glyph unicode="&#x11c;" d="M896 0h-640v128h-128v896h128v128h512v-128h128v-256h-256v256h-256v-896h256v256h-128v128h384v-512zM896 1280h-256v128h-256v-128h-256v128h128v128h128v128h256v-128h128v-128h128v-128z" />
<glyph unicode="&#x11d;" d="M896 -256h-128v-128h-640v128h512v256h-384v128h-128v640h128v128h640v-1152zM640 128v640h-256v-640h256zM896 1024h-256v128h-256v-128h-256v128h128v128h128v128h256v-128h128v-128h128v-128z" />
<glyph unicode="&#x11e;" d="M896 0h-640v128h-128v896h128v128h512v-128h128v-256h-256v256h-256v-896h256v256h-128v128h384v-512zM896 1408h-128v-128h-512v128h-128v128h256v-128h256v128h256v-128z" />
<glyph unicode="&#x11f;" d="M896 -256h-128v-128h-640v128h512v256h-384v128h-128v640h128v128h640v-1152zM640 128v640h-256v-640h256zM896 1152h-128v-128h-512v128h-128v128h256v-128h256v128h256v-128z" />
<glyph unicode="&#x120;" d="M896 0h-640v128h-128v896h128v128h512v-128h128v-256h-256v256h-256v-896h256v256h-128v128h384v-512zM640 1280h-256v256h256v-256z" />
<glyph unicode="&#x121;" d="M896 -256h-128v-128h-640v128h512v256h-384v128h-128v640h128v128h640v-1152zM640 128v640h-256v-640h256zM640 1024h-256v256h256v-256z" />
<glyph unicode="&#x122;" d="M896 0h-640v128h-128v896h128v128h512v-128h128v-256h-256v256h-256v-896h256v256h-128v128h384v-512zM384 -256v128h256v-128h-128v-128h-256v128h128z" />
<glyph unicode="&#x123;" d="M896 -256h-128v-128h-640v128h512v256h-384v128h-128v640h128v128h640v-1152zM640 128v640h-256v-640h256zM384 1024v256h128v128h256v-128h-128v-256h-256z" />
<glyph unicode="&#x124;" d="M896 0h-256v512h-256v-512h-256v1152h256v-512h256v512h256v-1152zM896 1280h-256v128h-256v-128h-256v128h128v128h128v128h256v-128h128v-128h128v-128z" />
<glyph unicode="&#x125;" d="M896 0h-256v768h-256v-768h-256v1152h256v-256h384v-128h128v-768zM896 1280h-256v128h-256v-128h-256v128h128v128h128v128h256v-128h128v-128h128v-128z" />
<glyph unicode="&#x126;" d="M1024 768h-128v-768h-256v512h-256v-512h-256v768h-128v128h128v256h256v-256h256v256h256v-256h128v-128zM640 640v128h-256v-128h256z" />
<glyph unicode="&#x127;" d="M896 0h-256v768h-256v-768h-256v1024h-128v128h128v128h256v-128h256v-128h-256v-128h384v-128h128v-768z" />
<glyph unicode="&#x128;" d="M768 0h-512v128h128v896h-128v128h512v-128h-128v-896h128v-128zM1024 1408h-128v-128h-384v128h-128v-128h-256v128h128v128h384v-128h128v128h256v-128z" />
<glyph unicode="&#x129;" d="M896 0h-768v128h256v640h-256v128h512v-768h256v-128zM896 1152h-128v-128h-384v128h-128v-128h-256v128h128v128h384v-128h128v128h256v-128z" />
<glyph unicode="&#x12a;" d="M768 0h-512v128h128v896h-128v128h512v-128h-128v-896h128v-128zM896 1280h-768v128h768v-128z" />
<glyph unicode="&#x12b;" d="M896 0h-768v128h256v640h-256v128h512v-768h256v-128zM768 1024h-640v128h640v-128z" />
<glyph unicode="&#x12c;" d="M768 0h-512v128h128v896h-128v128h512v-128h-128v-896h128v-128zM896 1408h-128v-128h-512v128h-128v128h256v-128h256v128h256v-128z" />
<glyph unicode="&#x12d;" d="M896 0h-768v128h256v640h-256v128h512v-768h256v-128zM896 1152h-128v-128h-512v128h-128v128h256v-128h256v128h256v-128z" />
<glyph unicode="&#x12e;" d="M896 -384h-384v128h-128v256h-128v128h128v896h-128v128h512v-128h-128v-896h128v-128h-128v-256h256v-128z" />
<glyph unicode="&#x12f;" d="M896 -384h-384v128h-128v256h-256v128h256v640h-256v128h512v-768h256v-128h-256v-256h256v-128zM640 1024h-256v256h256v-256z" />
<glyph unicode="&#x130;" d="M768 0h-512v128h128v896h-128v128h512v-128h-128v-896h128v-128zM640 1280h-256v256h256v-256z" />
<glyph unicode="&#x131;" d="M896 0h-768v128h256v640h-256v128h512v-768h256v-128z" />
<glyph unicode="&#x132;" d="M1024 128h-128v-128h-384v128h-128v256h256v-256h128v1024h256v-1024zM0 1152h256v-1152h-256v1152z" />
<glyph unicode="&#x133;" d="M1024 -256h-128v-128h-512v128h384v1024h-128v128h384v-1152zM640 0h-512v128h128v640h-128v128h384v-768h128v-128zM1024 1024h-256v256h256v-256zM512 1024h-256v256h256v-256z" />
<glyph unicode="&#x134;" d="M896 128h-128v-128h-512v128h-128v256h256v-256h256v1024h256v-1024zM1024 1280h-256v128h-256v-128h-256v128h128v128h128v128h256v-128h128v-128h128v-128z" />
<glyph unicode="&#x135;" d="M768 -256h-128v-128h-512v128h384v1024h-256v128h512v-1152zM896 1024h-256v128h-256v-128h-256v128h128v128h128v128h256v-128h128v-128h128v-128z" />
<glyph unicode="&#x136;" d="M640 0v256h-128v256h-128v-512h-256v1152h256v-512h128v256h128v256h256v-256h-128v-256h-128v-128h128v-256h128v-256h-256zM384 -128h256v-128h-128v-128h-256v128h128v128z" />
<glyph unicode="&#x137;" d="M640 0v256h-128v128h-128v-384h-256v1152h256v-640h128v128h128v256h256v-256h-128v-128h-128v-128h128v-128h128v-256h-256zM384 -256v128h256v-128h-128v-128h-256v128h128z" />
<glyph unicode="&#x138;" d="M896 0h-256v256h-128v128h-128v-384h-256v896h256v-384h128v128h128v256h256v-256h-128v-128h-128v-128h128v-128h128v-256z" />
<glyph unicode="&#x139;" d="M896 0h-768v1152h256v-1024h512v-128zM640 1408h-128v-128h-256v128h128v128h256v-128z" />
<glyph unicode="&#x13a;" d="M896 0h-768v128h256v896h-256v128h512v-1024h256v-128zM768 1408h-128v-128h-256v128h128v128h256v-128z" />
<glyph unicode="&#x13b;" d="M896 0h-768v1152h256v-1024h512v-128zM384 -256v128h256v-128h-128v-128h-256v128h128z" />
<glyph unicode="&#x13c;" d="M896 0h-768v128h256v896h-256v128h512v-1024h256v-128zM384 -256v128h256v-128h-128v-128h-256v128h128z" />
<glyph unicode="&#x13d;" d="M896 0h-768v1152h256v-1024h512v-128zM896 768h-128v128h-128v256h256v-384zM768 640h-128v128h128v-128z" />
<glyph unicode="&#x13e;" d="M896 0h-768v128h256v896h-256v128h512v-1024h256v-128zM1024 768h-128v128h-128v256h256v-384zM896 640h-128v128h128v-128z" />
<glyph unicode="&#x13f;" d="M896 0h-768v1152h256v-1024h512v-128zM896 640h-256v256h256v-256z" />
<glyph unicode="&#x140;" d="M896 0h-768v128h256v896h-256v128h512v-1024h256v-128zM1024 512h-256v256h256v-256z" />
<glyph unicode="&#x141;" d="M896 0h-768v256h-128v256h128v640h256v-256h128v128h128v-256h-128v-128h-128v-512h512v-128z" />
<glyph unicode="&#x142;" d="M128 512h128v128h128v384h-256v128h512v-256h128v128h128v-256h-128v-128h-128v-512h256v-128h-768v128h256v256h-128v-128h-128v256z" />
<glyph unicode="&#x143;" d="M1024 0h-256v384h-128v128h-128v128h-128v-640h-256v1152h256v-256h128v-128h128v-128h128v512h256v-1152zM768 1408h-128v-128h-256v128h128v128h256v-128z" />
<glyph unicode="&#x144;" d="M896 0h-256v768h-256v-768h-256v896h640v-128h128v-768zM896 1280h-128v-128h-128v-128h-256v128h128v256h384v-128z" />
<glyph unicode="&#x145;" d="M128 1152h256v-256h128v-128h128v-128h128v512h256v-1152h-256v384h-128v128h-128v128h-128v-640h-256v1152zM512 -128h256v-128h-128v-128h-256v128h128v128z" />
<glyph unicode="&#x146;" d="M640 0v768h-256v-768h-256v896h640v-128h128v-768h-256zM384 -256v128h256v-128h-128v-128h-256v128h128z" />
<glyph unicode="&#x147;" d="M1024 0h-256v384h-128v128h-128v128h-128v-640h-256v1152h256v-256h128v-128h128v-128h128v512h256v-1152zM1024 1536h-128v-128h-128v-128h-256v128h-128v128h-128v128h256v-128h256v128h256v-128z" />
<glyph unicode="&#x148;" d="M896 0h-256v768h-256v-768h-256v896h640v-128h128v-768zM896 1280h-128v-128h-128v-128h-256v128h-128v128h-128v128h256v-128h256v128h256v-128z" />
<glyph unicode="&#x149;" d="M128 896h-128v256h256v-256h640v-128h128v-768h-256v768h-256v-768h-256v768h-128v128zM128 768v-128h-128v128h128z" />
<glyph unicode="&#x14a;" d="M896 -256h-128v-128h-512v128h384v1280h-256v-1024h-256v1152h640v-128h128v-1280z" />
<glyph unicode="&#x14b;" d="M896 -256h-128v-128h-384v128h256v1024h-256v-768h-256v896h640v-128h128v-1024z" />
<glyph unicode="&#x14c;" d="M896 128h-128v-128h-512v128h-128v896h128v128h512v-128h128v-896zM640 128v896h-256v-896h256zM896 1280h-768v128h768v-128z" />
<glyph unicode="&#x14d;" d="M896 128h-128v-128h-512v128h-128v640h128v128h512v-128h128v-640zM640 128v640h-256v-640h256zM896 1024h-768v128h768v-128z" />
<glyph unicode="&#x14e;" d="M896 128h-128v-128h-512v128h-128v896h128v128h512v-128h128v-896zM640 128v896h-256v-896h256zM896 1408h-128v-128h-512v128h-128v128h256v-128h256v128h256v-128z" />
<glyph unicode="&#x14f;" d="M896 128h-128v-128h-512v128h-128v640h128v128h512v-128h128v-640zM640 128v640h-256v-640h256zM896 1152h-128v-128h-512v128h-128v128h256v-128h256v128h256v-128z" />
<glyph unicode="&#x150;" d="M896 128h-128v-128h-512v128h-128v896h128v128h512v-128h128v-896zM640 128v896h-256v-896h256zM1024 1408h-128v-128h-256v128h128v128h256v-128zM512 1408h-128v-128h-256v128h128v128h256v-128z" />
<glyph unicode="&#x151;" d="M896 128h-128v-128h-512v128h-128v640h128v128h512v-128h128v-640zM640 128v640h-256v-640h256zM1024 1152h-128v-128h-256v128h128v128h256v-128zM512 1152h-128v-128h-256v128h128v128h256v-128z" />
<glyph unicode="&#x152;" d="M1024 0h-768v128h-128v896h128v128h768v-128h-256v-384h256v-128h-256v-384h256v-128zM512 128v896h-128v-896h128z" />
<glyph unicode="&#x153;" d="M384 128v640h128v128h384v-128h128v-384h-384v-256h384v-128h-384v128h-115v-128h-397v128h-128v640h128v128h256v-128h-128v-640h128zM768 512v256h-128v-256h128z" />
<glyph unicode="&#x154;" d="M896 0h-256v384h-128v128h-128v-512h-256v1152h640v-128h128v-384h-128v-256h128v-384zM640 640v384h-256v-384h256zM768 1408h-128v-128h-256v128h128v128h256v-128z" />
<glyph unicode="&#x155;" d="M512 512h-128v-512h-256v896h256v-256h128v-128zM896 1280h-128v-128h-128v-128h-256v128h128v256h384v-128zM896 640h-384v128h128v128h256v-256z" />
<glyph unicode="&#x156;" d="M640 0v384h-128v128h-128v-512h-256v1152h640v-128h128v-384h-128v-256h128v-384h-256zM640 640v384h-256v-384h256zM384 -256v128h256v-128h-128v-128h-256v128h128z" />
<glyph unicode="&#x157;" d="M384 0h-256v896h256v-256h128v-128h-128v-512zM896 640h-384v128h128v128h256v-256zM256 -256v128h256v-128h-128v-128h-256v128h128z" />
<glyph unicode="&#x158;" d="M896 0h-256v384h-128v128h-128v-512h-256v1152h640v-128h128v-384h-128v-256h128v-384zM640 640v384h-256v-384h256zM896 1536h-128v-128h-128v-128h-256v128h-128v128h-128v128h256v-128h256v128h256v-128z" />
<glyph unicode="&#x159;" d="M512 512h-128v-512h-256v896h256v-256h128v-128zM896 1280h-128v-128h-128v-128h-256v128h-128v128h-128v128h256v-128h256v128h256v-128zM896 640h-384v128h128v128h256v-256z" />
<glyph unicode="&#x15a;" d="M896 128h-128v-128h-512v128h-128v128h256v-128h256v256h-128v128h-128v128h-128v128h-128v256h128v128h512v-128h128v-128h-256v128h-256v-256h128v-128h128v-128h128v-128h128v-256zM768 1408h-128v-128h-256v128h128v128h256v-128z" />
<glyph unicode="&#x15b;" d="M896 128h-128v-128h-640v128h512v256h-384v128h-128v256h128v128h640v-128h-512v-256h384v-128h128v-256zM896 1280h-128v-128h-128v-128h-256v128h128v256h384v-128z" />
<glyph unicode="&#x15c;" d="M896 128h-128v-128h-512v128h-128v128h256v-128h256v256h-128v128h-128v128h-128v128h-128v256h128v128h512v-128h128v-128h-256v128h-256v-256h128v-128h128v-128h128v-128h128v-256zM384 1664h256v-128h128v-128h128v-128h-256v128h-256v-128h-256v128h128v128h128v128 z" />
<glyph unicode="&#x15d;" d="M896 128h-128v-128h-640v128h512v256h-384v128h-128v256h128v128h640v-128h-512v-256h384v-128h128v-256zM896 1024h-256v128h-256v-128h-256v128h128v128h128v128h256v-128h128v-128h128v-128z" />
<glyph unicode="&#x15e;" d="M896 128h-128v-128h-128v-128h128v-128h-128v-128h-384v128h256v128h-128v128h-128v128h-128v128h256v-128h256v256h-128v128h-128v128h-128v128h-128v256h128v128h512v-128h128v-128h-256v128h-256v-256h128v-128h128v-128h128v-128h128v-256z" />
<glyph unicode="&#x15f;" d="M896 128h-128v-128h-128v-128h128v-128h-128v-128h-384v128h256v128h-128v128h-256v128h512v256h-384v128h-128v256h128v128h640v-128h-512v-256h384v-128h128v-256z" />
<glyph unicode="&#x160;" d="M896 128h-128v-128h-512v128h-128v128h256v-128h256v256h-128v128h-128v128h-128v128h-128v256h128v128h512v-128h128v-128h-256v128h-256v-256h128v-128h128v-128h128v-128h128v-256zM896 1536h-128v-128h-128v-128h-256v128h-128v128h-128v128h256v-128h256v128h256 v-128z" />
<glyph unicode="&#x161;" d="M896 128h-128v-128h-640v128h512v256h-384v128h-128v256h128v128h640v-128h-512v-256h384v-128h128v-256zM896 1280h-128v-128h-128v-128h-256v128h-128v128h-128v128h256v-128h256v128h256v-128z" />
<glyph unicode="&#x162;" d="M896 1024h-256v-1152h128v-128h-128v-128h-384v128h256v128h-128v1152h-256v128h768v-128z" />
<glyph unicode="&#x163;" d="M896 0h-256v-128h128v-128h-128v-128h-384v128h256v128h-128v256h-128v640h-128v128h128v256h256v-256h384v-128h-384v-640h384v-128z" />
<glyph unicode="&#x164;" d="M896 1024h-256v-1024h-256v1024h-256v128h768v-128zM896 1536h-128v-128h-128v-128h-256v128h-128v128h-128v128h256v-128h256v128h256v-128z" />
<glyph unicode="&#x165;" d="M640 0h-384v128h-128v640h-128v128h128v256h256v-256h256v-128h-256v-640h256v-128zM1024 768h-128v128h-128v256h256v-384zM896 640h-128v128h128v-128z" />
<glyph unicode="&#x166;" d="M896 1024h-256v-384h128v-128h-128v-512h-256v512h-128v128h128v384h-256v128h768v-128z" />
<glyph unicode="&#x167;" d="M896 0h-512v128h-128v384h-128v128h128v128h-128v128h128v256h256v-256h384v-128h-384v-128h256v-128h-256v-384h384v-128z" />
<glyph unicode="&#x168;" d="M896 128h-128v-128h-512v128h-128v1024h256v-1024h256v1024h256v-1024zM1024 1408h-128v-128h-384v128h-128v-128h-256v128h128v128h384v-128h128v128h256v-128z" />
<glyph unicode="&#x169;" d="M896 0h-640v128h-128v768h256v-768h256v768h256v-896zM1024 1152h-128v-128h-384v128h-128v-128h-256v128h128v128h384v-128h128v128h256v-128z" />
<glyph unicode="&#x16a;" d="M896 128h-128v-128h-512v128h-128v1024h256v-1024h256v1024h256v-1024zM896 1280h-768v128h768v-128z" />
<glyph unicode="&#x16b;" d="M896 0h-640v128h-128v768h256v-768h256v768h256v-896zM896 1024h-768v128h768v-128z" />
<glyph unicode="&#x16c;" d="M896 128h-128v-128h-512v128h-128v1024h256v-1024h256v1024h256v-1024zM896 1408h-128v-128h-512v128h-128v128h256v-128h256v128h256v-128z" />
<glyph unicode="&#x16d;" d="M896 0h-640v128h-128v768h256v-768h256v768h256v-896zM896 1152h-128v-128h-512v128h-128v128h256v-128h256v128h256v-128z" />
<glyph unicode="&#x16e;" d="M896 128h-128v-128h-512v128h-128v1024h256v-1024h256v1024h256v-1024zM896 1408h-128v-128h-512v128h-128v128h128v128h512v-128h128v-128zM640 1408v128h-256v-128h256z" />
<glyph unicode="&#x16f;" d="M896 0h-640v128h-128v768h256v-768h256v768h256v-896zM896 1152h-128v-128h-512v128h-128v128h128v128h512v-128h128v-128zM640 1152v128h-256v-128h256z" />
<glyph unicode="&#x170;" d="M896 128h-128v-128h-512v128h-128v1024h256v-1024h256v1024h256v-1024zM1024 1408h-128v-128h-256v128h128v128h256v-128zM512 1408h-128v-128h-256v128h128v128h256v-128z" />
<glyph unicode="&#x171;" d="M896 0h-640v128h-128v768h256v-768h256v768h256v-896zM1024 1152h-128v-128h-256v128h128v128h256v-128zM512 1152h-128v-128h-256v128h128v128h256v-128z" />
<glyph unicode="&#x172;" d="M896 -256v-128h-384v128h-128v256h-128v128h-128v1024h256v-1024h256v1024h256v-1024h-128v-128h-128v-256h256z" />
<glyph unicode="&#x173;" d="M1024 -384h-384v128h-128v256h-256v128h-128v768h256v-768h256v768h256v-896h-128v-256h256v-128z" />
<glyph unicode="&#x174;" d="M1024 384h-128v-384h-256v384h-128v384h128v-384h128v768h256v-768zM512 0h-256v384h-128v768h256v-768h128v-384zM896 1280h-256v128h-256v-128h-256v128h128v128h128v128h256v-128h128v-128h128v-128z" />
<glyph unicode="&#x175;" d="M1024 256h-128v-256h-256v256h-128v512h128v-512h128v640h256v-640zM512 0h-256v256h-128v640h256v-640h128v-256zM896 1024h-256v128h-256v-128h-256v128h128v128h128v128h256v-128h128v-128h128v-128z" />
<glyph unicode="&#x176;" d="M896 640h-128v-128h-128v-512h-256v512h-128v128h-128v512h256v-512h256v512h256v-512zM384 1664h256v-128h128v-128h128v-128h-256v128h-256v-128h-256v128h128v128h128v128z" />
<glyph unicode="&#x177;" d="M896 128h-128v-256h-128v-128h-128v-128h-512v128h384v128h128v128h-256v128h-128v768h256v-768h256v768h256v-768zM896 1024h-256v128h-256v-128h-256v128h128v128h128v128h256v-128h128v-128h128v-128z" />
<glyph unicode="&#x178;" d="M896 640h-128v-128h-128v-512h-256v512h-128v128h-128v512h256v-512h256v512h256v-512zM896 1280h-256v256h256v-256zM384 1280h-256v256h256v-256z" />
<glyph unicode="&#x179;" d="M896 0h-768v384h128v128h128v128h128v128h128v256h-512v128h768v-384h-128v-128h-128v-128h-128v-128h-128v-256h512v-128zM768 1408h-128v-128h-256v128h128v128h256v-128z" />
<glyph unicode="&#x17a;" d="M896 0h-768v256h128v128h128v128h128v128h128v128h-512v128h768v-256h-128v-128h-128v-128h-128v-128h-128v-128h512v-128zM896 1280h-128v-128h-128v-128h-256v128h128v256h384v-128z" />
<glyph unicode="&#x17b;" d="M896 0h-768v384h128v128h128v128h128v128h128v256h-512v128h768v-384h-128v-128h-128v-128h-128v-128h-128v-256h512v-128zM640 1280h-256v256h256v-256z" />
<glyph unicode="&#x17c;" d="M896 0h-768v256h128v128h128v128h128v128h128v128h-512v128h768v-256h-128v-128h-128v-128h-128v-128h-128v-128h512v-128zM640 1024h-256v256h256v-256z" />
<glyph unicode="&#x17d;" d="M896 0h-768v384h128v128h128v128h128v128h128v256h-512v128h768v-384h-128v-128h-128v-128h-128v-128h-128v-256h512v-128zM896 1536h-128v-128h-128v-128h-256v128h-128v128h-128v128h256v-128h256v128h256v-128z" />
<glyph unicode="&#x17e;" d="M896 0h-768v256h128v128h128v128h128v128h128v128h-512v128h768v-256h-128v-128h-128v-128h-128v-128h-128v-128h512v-128zM896 1280h-128v-128h-128v-128h-256v128h-128v128h-128v128h256v-128h256v128h256v-128z" />
<glyph unicode="&#x17f;" d="M256 640h128v384h128v128h512v-128h-384v-1024h-256v512h-128v128z" />
<glyph unicode="&#x180;" d="M896 128h-128v-128h-640v1024h-128v128h128v128h256v-128h256v-128h-256v-128h384v-128h128v-640zM640 128v640h-256v-640h256z" />
<glyph unicode="&#x181;" d="M-128 1408v128h384v-128h128v-256h384v-128h128v-384h-128v-128h128v-384h-128v-128h-640v1408h-256zM640 640v384h-256v-384h256zM640 128v384h-256v-384h256z" />
<glyph unicode="&#x182;" d="M896 128h-128v-128h-640v1152h768v-128h-512v-384h384v-128h128v-384zM640 128v384h-256v-384h256z" />
<glyph unicode="&#x183;" d="M896 128h-128v-128h-640v1152h640v-128h-384v-128h384v-128h128v-640zM640 128v640h-256v-640h256z" />
<glyph unicode="&#x184;" d="M128 896h-128v128h128v128h256v-512h384v-128h128v-384h-128v-128h-640v896zM640 128v384h-256v-384h256z" />
<glyph unicode="&#x185;" d="M896 128h-128v-128h-512v128h-128v768h-128v128h128v128h256v-256h384v-128h128v-640zM640 128v640h-256v-640h256z" />
<glyph unicode="&#x186;" d="M896 128h-128v-128h-512v128h-128v256h256v-256h256v896h-256v-256h-256v256h128v128h512v-128h128v-896z" />
<glyph unicode="&#x187;" d="M896 768h-256v256h-256v-896h256v256h256v-256h-128v-128h-512v128h-128v896h128v128h384v128h256v-512zM768 1408h256v-128h-256v128z" />
<glyph unicode="&#x188;" d="M896 640h-256v128h-256v-640h256v128h256v-128h-128v-128h-512v128h-128v640h128v128h384v128h128v128h256v-128h-128v-384z" />
<glyph unicode="&#x189;" d="M896 256h-128v-128h-128v-128h-512v512h-128v128h128v512h512v-128h128v-128h128v-640zM640 256v640h-128v128h-128v-384h128v-128h-128v-384h128v128h128z" />
<glyph unicode="&#x18a;" d="M-256 1280h128v128h384v-128h128v-128h256v-128h128v-128h128v-640h-128v-128h-128v-128h-512v1280h-128v-128h-256v128zM640 256v640h-128v128h-128v-896h128v128h128z" />
<glyph unicode="&#x18b;" d="M896 0h-640v128h-128v384h128v128h384v384h-384v128h640v-1152zM640 128v384h-256v-384h256z" />
<glyph unicode="&#x18c;" d="M896 0h-640v128h-128v640h128v128h384v128h-384v128h640v-1152zM640 128v640h-256v-640h256z" />
<glyph unicode="&#x18d;" d="M256 -384v128h256v256h-256v128h-128v640h128v128h512v-128h128v-640h-128v-384h-128v-128h-384zM640 768h-256v-640h256v640z" />
<glyph unicode="&#x18e;" d="M896 0h-768v128h512v384h-384v128h384v384h-512v128h768v-1152z" />
<glyph unicode="&#x18f;" d="M896 128h-128v-128h-512v128h-128v512h512v384h-256v-256h-256v256h128v128h512v-128h128v-896zM640 128v384h-256v-384h256z" />
<glyph unicode="&#x190;" d="M896 128h-128v-128h-512v128h-128v384h128v128h-128v384h128v128h512v-128h128v-256h-256v256h-256v-384h256v-128h-256v-384h256v256h256v-256z" />
<glyph unicode="&#x191;" d="M896 1024h-512v-384h384v-128h-384v-768h-128v-128h-256v128h128v1408h768v-128z" />
<glyph unicode="&#x192;" d="M896 1024h-384v-384h384v-128h-384v-768h-128v-128h-384v128h256v768h-128v128h128v384h128v128h512v-128z" />
<glyph unicode="&#x193;" d="M768 1408h256v-128h-128v-512h-256v256h-256v-896h256v256h-128v128h384v-512h-640v128h-128v896h128v128h384v128h128v128z" />
<glyph unicode="&#x194;" d="M768 128v-128h128v-256h-128v-128h-512v128h-128v256h128v128h128v128h-128v128h-128v768h256v-768h256v768h256v-768h-128v-128h-128v-128h128zM640 -256v256h-256v-256h256z" />
<glyph unicode="&#x195;" d="M768 128v768h256v-768h-128v-128h-384v128h-128v640h-128v-768h-256v1152h256v-256h256v-128h128v-640h128z" />
<glyph unicode="&#x196;" d="M768 0h-384v128h-128v1024h256v-1024h128v128h256v-128h-128v-128z" />
<glyph unicode="&#x197;" d="M896 512h-256v-384h128v-128h-512v128h128v384h-256v128h256v384h-128v128h512v-128h-128v-384h256v-128z" />
<glyph unicode="&#x198;" d="M896 1152h-128v-512h-128v-128h128v-256h128v-256h-256v256h-128v256h-128v-512h-256v1152h256v-512h128v512h128v128h384v-128h128v-256h-256v256z" />
<glyph unicode="&#x199;" d="M896 0h-256v256h-128v128h-128v-384h-256v1152h128v128h384v-128h-256v-640h128v128h128v256h256v-256h-128v-128h-128v-128h128v-128h128v-256z" />
<glyph unicode="&#x19a;" d="M896 0h-768v128h256v384h-256v128h256v384h-256v128h512v-512h256v-128h-256v-384h256v-128z" />
<glyph unicode="&#x19b;" d="M896 0h-256v512h-256v-512h-256v512h128v128h-128v256h128v256h256v-128h128v128h128v-256h-128v-256h128v-128h128v-512zM384 640v128h-128v-128h128z" />
<glyph unicode="&#x19c;" d="M1024 0h-768v128h-128v1024h256v-1024h128v1024h128v-1024h128v1024h256v-1152z" />
<glyph unicode="&#x19d;" d="M1024 0h-256v384h-128v128h-128v128h-128v-896h-128v-128h-256v128h128v1408h256v-256h128v-128h128v-128h128v512h256v-1152z" />
<glyph unicode="&#x19e;" d="M896 -384h-256v1152h-256v-768h-256v896h640v-128h128v-1152z" />
<glyph unicode="&#x19f;" d="M896 128h-128v-128h-512v128h-128v896h128v128h512v-128h128v-896zM640 128v384h-256v-384h256zM640 640v384h-256v-384h256z" />
<glyph unicode="&#x1a0;" d="M896 128h-128v-128h-512v128h-128v896h128v128h512v-128h128v128h-128v256h256v-512h-128v-768zM640 1024h-256v-896h256v896z" />
<glyph unicode="&#x1a1;" d="M768 1152h256v-512h-128v-512h-128v-128h-512v128h-128v640h128v128h512v-128h128v128h-128v256zM640 768h-256v-640h256v640z" />
<glyph unicode="&#x1a2;" d="M1024 -384h-256v1408h-128v-1024h-384v128h-128v896h128v128h768v-1536zM512 128v896h-128v-896h128z" />
<glyph unicode="&#x1a3;" d="M1024 -384h-256v1152h-128v-768h-384v128h-128v640h128v128h640v-128h128v-1152zM512 128v640h-128v-640h128z" />
<glyph unicode="&#x1a4;" d="M-256 1280h128v128h384v-128h128v-128h384v-128h128v-384h-128v-128h-384v-512h-256v1280h-128v-128h-256v128zM640 640v384h-256v-384h256z" />
<glyph unicode="&#x1a5;" d="M896 128h-128v-128h-384v-384h-256v1536h128v128h384v-128h-256v-256h384v-128h128v-640zM640 128v640h-256v-640h256z" />
<glyph unicode="&#x1a6;" d="M1024 -384h-256v128h-128v512h-128v128h-128v-384h-256v1152h256v-128h384v-128h128v-384h-128v-256h128v-512h128v-128zM640 512v384h-256v-384h256z" />
<glyph unicode="&#x1a7;" d="M896 128h-128v-128h-512v128h-128v256h128v128h128v128h128v128h128v256h-256v-128h-256v128h128v128h512v-128h128v-256h-128v-128h-128v-128h-128v-128h-128v-256h256v128h256v-128z" />
<glyph unicode="&#x1a8;" d="M896 0h-640v128h-128v256h128v128h384v256h-512v128h640v-128h128v-256h-128v-128h-384v-256h512v-128z" />
<glyph unicode="&#x1a9;" d="M896 0h-768v384h128v128h128v128h-128v128h-128v384h768v-128h-512v-256h128v-128h128v-128h-128v-128h-128v-256h512v-128z" />
<glyph unicode="&#x1aa;" d="M1024 -384h-384v128h-128v1024h-256v128h-128v256h128v128h384v-128h128v-1408h256v-128zM512 896v256h-128v-256h128z" />
<glyph unicode="&#x1ab;" d="M896 -256h-128v-128h-512v128h-128v128h256v-128h256v256h-256v128h-128v640h-128v128h128v256h256v-256h384v-128h-384v-640h384v-384z" />
<glyph unicode="&#x1ac;" d="M1024 1024h-256v-1024h-256v1024h-128v-256h-256v256h128v128h768v-128z" />
<glyph unicode="&#x1ad;" d="M896 0h-512v128h-128v640h-128v128h128v256h128v128h384v-128h-256v-256h384v-128h-384v-640h384v-128z" />
<glyph unicode="&#x1ae;" d="M896 -384h-384v128h-128v1280h-256v128h768v-128h-256v-1280h256v-128z" />
<glyph unicode="&#x1af;" d="M896 1024v128h-128v256h256v-512h-128v-768h-128v-128h-512v128h-128v1024h256v-1024h256v1024h128v-128h128z" />
<glyph unicode="&#x1b0;" d="M768 1152h256v-512h-128v-640h-640v128h-128v768h256v-768h256v768h128v256zM896 768v128h-128v-128h128z" />
<glyph unicode="&#x1b1;" d="M1024 128h-128v-128h-640v128h-128v768h128v128h-128v128h384v-256h-128v-768h384v768h-128v256h384v-128h-128v-128h128v-768z" />
<glyph unicode="&#x1b2;" d="M896 256h-128v-128h-128v-128h-256v128h-128v128h-128v896h256v-896h256v896h-128v128h256v-128h128v-896z" />
<glyph unicode="&#x1b3;" d="M768 1280h384v-128h-256v-512h-128v-128h-128v-512h-256v512h-128v128h-128v512h256v-512h256v512h128v128z" />
<glyph unicode="&#x1b4;" d="M1152 1024h-256v-896h-128v-256h-128v-128h-128v-128h-512v128h384v128h128v128h-256v128h-128v768h256v-768h256v896h128v128h384v-128z" />
<glyph unicode="&#x1b5;" d="M896 0h-768v384h128v128h-128v128h384v128h128v256h-512v128h768v-384h-128v-128h128v-128h-384v-128h-128v-256h512v-128z" />
<glyph unicode="&#x1b6;" d="M896 0h-768v256h128v128h-128v128h384v128h128v128h-512v128h768v-256h-128v-128h128v-128h-384v-128h-128v-128h512v-128z" />
<glyph unicode="&#x1b7;" d="M896 128h-128v-128h-512v128h-128v128h256v-128h256v512h-256v128h128v128h128v128h-512v128h768v-256h-128v-256h128v-512z" />
<glyph unicode="&#x1b8;" d="M896 128h-128v-128h-512v128h-128v512h128v256h-128v256h768v-128h-512v-128h128v-128h128v-128h-256v-512h256v128h256v-128z" />
<glyph unicode="&#x1b9;" d="M896 -256h-128v-128h-512v128h-128v512h128v128h128v128h-128v128h-128v256h768v-128h-512v-128h128v-128h128v-128h128v-128h-384v-512h256v128h256v-128z" />
<glyph unicode="&#x1ba;" d="M896 -256h-128v-128h-512v128h-128v256h128v128h256v256h-256v128h128v128h128v128h-384v128h768v-128h-128v-128h-128v-256h128v-256h-128v-128h-256v-256h256v128h256v-128z" />
<glyph unicode="&#x1bb;" d="M896 0h-768v256h128v128h-128v128h384v128h128v384h-256v-256h-256v256h128v128h512v-128h128v-384h-128v-128h128v-128h-384v-128h-128v-128h512v-128z" />
<glyph unicode="&#x1bc;" d="M128 1152h768v-128h-384v-384h256v-128h128v-256h-128v-128h-128v-128h-512v128h384v128h128v256h-384v512h-128v128z" />
<glyph unicode="&#x1bd;" d="M896 128h-128v-128h-512v128h384v256h-384v384h-128v128h768v-128h-384v-256h256v-128h128v-256z" />
<glyph unicode="&#x1be;" d="M896 128h-128v-128h-640v128h512v256h-256v128h-128v256h-128v128h128v256h256v-256h384v-128h-384v-256h256v-128h128v-256z" />
<glyph unicode="&#x1bf;" d="M896 384h-128v-128h-128v-128h-128v-128h-128v-384h-256v1280h640v-128h128v-384zM640 384v384h-256v-512h128v128h128z" />
<glyph unicode="&#x1c0;" d="M640 0h-256v1152h256v-1152z" />
<glyph unicode="&#x1c1;" d="M896 0h-256v1152h256v-1152zM512 0h-256v1152h256v-1152z" />
<glyph unicode="&#x1c2;" d="M896 384h-256v-384h-256v384h-256v128h256v128h-256v128h256v384h256v-384h256v-128h-256v-128h256v-128z" />
<glyph unicode="&#x1c3;" d="M768 640h-128v-256h-256v256h-128v384h128v128h256v-128h128v-384zM640 0h-256v256h256v-256z" />
<glyph unicode="&#x1c4;" d="M512 1152h512v-384h-128v-384h-128v-256h256v-128h-512v128h-128v896h-128v-896h128v-128h-384v1152h384v-128h128v128zM512 384h128v384h128v256h-256v-640zM512 1536h256v-128h128v-128h-256v128h-128v128zM896 1536h128v-128h-128v128z" />
<glyph unicode="&#x1c5;" d="M896 640v-256h-128v-256h256v-128h-512v128h-128v896h-128v-896h128v-128h-384v1152h384v-128h128v-128h512v-256h-128zM768 768h-256v-384h128v256h128v128zM512 1280h256v-128h128v-128h-256v128h-128v128zM896 1280h128v-128h-128v128z" />
<glyph unicode="&#x1c6;" d="M128 128h128v640h-128v128h128v256h256v-256h512v-256h-128v-256h-128v-256h256v-128h-896v128zM128 128h-128v640h128v-640zM512 1280h256v-128h128v-128h-256v128h-128v128zM768 768h-256v-384h128v256h128v128zM896 1280h128v-128h-128v128z" />
<glyph unicode="&#x1c7;" d="M0 1152h256v-1024h128v256h256v-256h128v1024h256v-1024h-128v-128h-896v1152z" />
<glyph unicode="&#x1c8;" d="M1024 -256h-128v-128h-512v128h384v1024h-256v128h512v-1152zM640 0h-640v1152h256v-1024h384v-128zM1024 1024h-256v256h256v-256z" />
<glyph unicode="&#x1c9;" d="M1024 -256h-128v-128h-384v128h256v1024h-128v128h384v-1152zM640 0h-512v128h128v896h-128v128h384v-1024h128v-128zM1024 1024h-256v256h256v-256z" />
<glyph unicode="&#x1ca;" d="M256 0h-256v1152h256v-256h128v256h128v-768h128v-256h128v1024h256v-1024h-128v-128h-256v128h-128v-128h-128v512h-128v-512z" />
<glyph unicode="&#x1cb;" d="M256 0h-256v1152h256v-256h128v-256h128v512h128v-256h384v-1152h-128v-128h-384v128h256v1024h-128v-768h-128v384h-128v256h-128v-640zM1024 1024h-256v256h256v-256z" />
<glyph unicode="&#x1cc;" d="M640 0h-256v768h-128v-768h-256v896h512v-128h128v-768zM1024 -256h-128v-128h-384v128h256v1024h-128v128h384v-1152zM1024 1024h-256v256h256v-256z" />
<glyph unicode="&#x1cd;" d="M896 0h-256v384h-256v-384h-256v896h128v128h128v128h256v-128h128v-128h128v-896zM384 1408h-128v128h-128v128h256v-128h256v128h256v-128h-128v-128h-128v-128h-256v128zM640 512v384h-256v-384h256z" />
<glyph unicode="&#x1ce;" d="M896 0h-640v128h-128v256h128v128h384v256h-384v128h512v-128h128v-768zM896 1280h-128v-128h-128v-128h-256v128h-128v128h-128v128h256v-128h256v128h256v-128zM640 128v256h-256v-256h256z" />
<glyph unicode="&#x1cf;" d="M768 0h-512v128h128v896h-128v128h512v-128h-128v-896h128v-128zM384 1408h-128v128h-128v128h256v-128h256v128h256v-128h-128v-128h-128v-128h-256v128z" />
<glyph unicode="&#x1d0;" d="M896 0h-768v128h256v640h-256v128h512v-768h256v-128zM896 1280h-128v-128h-128v-128h-256v128h-128v128h-128v128h256v-128h256v128h256v-128z" />
<glyph unicode="&#x1d1;" d="M896 128h-128v-128h-512v128h-128v896h128v128h512v-128h128v-896zM640 128v896h-256v-896h256zM384 1408h-128v128h-128v128h256v-128h256v128h256v-128h-128v-128h-128v-128h-256v128z" />
<glyph unicode="&#x1d2;" d="M896 128h-128v-128h-512v128h-128v640h128v128h512v-128h128v-640zM896 1280h-128v-128h-128v-128h-256v128h-128v128h-128v128h256v-128h256v128h256v-128zM640 128v640h-256v-640h256z" />
<glyph unicode="&#x1d3;" d="M896 128h-128v-128h-512v128h-128v1024h256v-1024h256v1024h256v-1024zM384 1408h-128v128h-128v128h256v-128h256v128h256v-128h-128v-128h-128v-128h-256v128z" />
<glyph unicode="&#x1d4;" d="M896 0h-640v128h-128v768h256v-768h256v768h256v-896zM896 1280h-128v-128h-128v-128h-256v128h-128v128h-128v128h256v-128h256v128h256v-128z" />
<glyph unicode="&#x1d5;" d="M896 128h-128v-128h-512v128h-128v1024h256v-1024h256v1024h256v-1024zM896 1536h-768v128h768v-128zM384 1280h-256v128h256v-128zM896 1280h-256v128h256v-128z" />
<glyph unicode="&#x1d6;" d="M896 0h-640v128h-128v768h256v-768h256v768h256v-896zM896 1408h-768v128h768v-128zM384 1024h-256v256h256v-256zM896 1024h-256v256h256v-256z" />
<glyph unicode="&#x1d7;" d="M896 128h-128v-128h-512v128h-128v1024h256v-1024h256v1024h256v-1024zM896 1280h-256v128h256v-128zM384 1280h-256v128h256v-128zM512 1664h256v-128h-128v-128h-256v128h128v128z" />
<glyph unicode="&#x1d8;" d="M896 0h-640v128h-128v768h256v-768h256v768h256v-896zM512 1664h384v-128h-128v-128h-128v-128h-256v128h128v256zM128 1280h256v-256h-256v256zM640 1280h256v-256h-256v256z" />
<glyph unicode="&#x1d9;" d="M896 128h-128v-128h-512v128h-128l-13 1024h256l13 -1024h256l-13 1024h256zM256 1408v128h-141v128h256v-128h256v128h256v-128h-115v-128h-141v-128h-256v128h-115zM115 1408h141v-128h-141v128zM768 1280v128h115v-128h-115z" />
<glyph unicode="&#x1da;" d="M896 0h-640v128h-128v768h256v-768h256v768h256v-896zM640 1664h256v-128h-128v-128h-128v-128h256v-256h-256v256h-256v128h-128v128h-128v128h256v-128h256v128zM384 1024h-256v256h256v-256z" />
<glyph unicode="&#x1db;" d="M896 128h-128v-128h-512v128h-128v1024h256v-1024h256v1024h256v-1024zM640 1408h-256v128h-128v128h256v-128h128v-128zM384 1280h-256v128h256v-128zM896 1280h-256v128h256v-128z" />
<glyph unicode="&#x1dc;" d="M896 0h-640v128h-128v768h256v-768h256v768h256v-896zM128 1664h384v-256h128v-128h256v-256h-256v256h-256v128h-128v128h-128v128zM128 1280h256v-256h-256v256z" />
<glyph unicode="&#x1dd;" d="M896 128h-128v-128h-512v128h-128v384h512v256h-384v128h512v-128h128v-640zM640 128v256h-256v-256h256z" />
<glyph unicode="&#x1de;" d="M896 0h-256v384h-256v-384h-256v896h128v128h128v128h-256v256h256v-256h256v-128h128v-128h128v-896zM896 1536h-768v128h768v-128zM640 1408h256v-256h-256v256zM640 512v384h-256v-384h256z" />
<glyph unicode="&#x1df;" d="M896 0h-640v128h-128v256h128v128h384v256h-384v128h512v-128h128v-768zM896 1408h-768v128h768v-128zM896 1024h-256v256h256v-256zM384 1024h-256v256h256v-256zM640 128v256h-256v-256h256z" />
<glyph unicode="&#x1e0;" d="M896 0h-256v384h-256v-384h-256v896h128v128h128v128h256v-128h128v-128h128v-896zM896 1536h-768v128h768v-128zM640 512v384h-256v-384h256zM640 1280h-256v128h256v-128z" />
<glyph unicode="&#x1e1;" d="M896 0h-640v128h-128v256h128v128h384v256h-384v128h512v-128h128v-768zM896 1408h-768v128h768v-128zM640 128v256h-256v-256h256zM640 1024h-256v256h256v-256z" />
<glyph unicode="&#x1e2;" d="M1024 0h-512v384h-128v-384h-256v896h128v128h128v128h640v-128h-256v-384h256v-128h-256v-384h256v-128zM1024 1280h-640v128h640v-128zM512 512v384h-128v-384h128z" />
<glyph unicode="&#x1e3;" d="M1024 0h-384v128h-128v-128h-384v128h-128v256h128v128h256v256h-256v128h256v-128h128v128h384v-128h128v-384h-384v-256h384v-128zM896 1024h-768v128h768v-128zM768 512v256h-128v-256h128zM384 128v256h-128v-256h128z" />
<glyph unicode="&#x1e4;" d="M1024 256h-128v-256h-640v128h-128v896h128v128h512v-128h128v-256h-256v256h-256v-896h256v128h-128v128h128v128h-128v128h384v-256h128v-128z" />
<glyph unicode="&#x1e5;" d="M1024 -128h-128v-128h-128v-128h-640v128h512v128h-384v128h384v128h-384v128h-128v512h128v128h640v-896h128v-128zM640 256v512h-256v-512h256z" />
<glyph unicode="&#x1e6;" d="M896 0h-640v128h-128v896h128v128h512v-128h128v-256h-256v256h-256v-896h256v256h-128v128h384v-512zM640 1664h256v-128h-128v-128h-128v-128h-256v128h-128v128h-128v128h256v-128h256v128z" />
<glyph unicode="&#x1e7;" d="M896 -256h-128v-128h-640v128h512v256h-384v128h-128v640h128v128h640v-1152zM896 1280h-128v-128h-128v-128h-256v128h-128v128h-128v128h256v-128h256v128h256v-128zM640 128v640h-256v-640h256z" />
<glyph unicode="&#x1e8;" d="M896 0h-256v256h-128v256h-128v-512h-256v1152h256v-512h128v256h128v256h256v-256h-128v-256h-128v-128h128v-256h128v-256zM640 1664h256v-128h-128v-128h-128v-128h-256v128h-128v128h-128v128h256v-128h256v128z" />
<glyph unicode="&#x1e9;" d="M896 0h-256v256h-128v128h-128v-384h-256v1152h256v-640h128v128h128v256h256v-256h-128v-128h-128v-128h128v-128h128v-256zM128 1664h256v-128h256v128h256v-128h-128v-128h-128v-128h-256v128h-128v128h-128v128z" />
<glyph unicode="&#x1ea;" d="M896 -256v-128h-384v128h-128v256h-128v128h-128v896h128v128h512v-128h128v-896h-128v-128h-128v-256h256zM640 128v896h-256v-896h256z" />
<glyph unicode="&#x1eb;" d="M512 -256h-128v256h-128v128h-128v640h128v128h512v-128h128v-640h-128v-128h-128v-256h256v-128h-384v128zM640 128v640h-256v-640h256z" />
<glyph unicode="&#x1ec;" d="M896 1280h-768v128h768v-128zM640 -256v256h128v128h128v896h-128v128h-512v-128h-128v-896h128v-128h128v-256h128v-128h384v128h-256zM384 128v896h256v-896h-256z" />
<glyph unicode="&#x1ed;" d="M896 1024h-768v128h768v-128zM640 -256v256h128v128h128v640h-128v128h-512v-128h-128v-640h128v-128h128v-256h128v-128h384v128h-256zM384 128v640h256v-640h-256z" />
<glyph unicode="&#x1ee;" d="M896 128h-128v-128h-512v128h-128v128h256v-128h256v512h-256v128h128v128h128v128h-512v128h768v-256h-128v-256h128v-512zM128 1664h256v-128h256v128h256v-128h-128v-128h-128v-128h-256v128h-128v128h-128v128z" />
<glyph unicode="&#x1ef;" d="M896 -256h-128v-128h-512v128h-128v128h256v-128h256v512h-384v128h128v128h128v128h128v128h-512v128h768v-256h-128v-128h-128v-128h128v-128h128v-512zM896 1280h-128v-128h-128v-128h-256v128h-128v128h-128v128h256v-128h256v128h256v-128z" />
<glyph unicode="&#x1f0;" d="M768 -256h-128v-128h-512v128h384v1024h-256v128h512v-1152zM896 1280h-128v-128h-128v-128h-256v128h-128v128h-128v128h256v-128h256v128h256v-128z" />
<glyph unicode="&#x1f1;" horiz-adv-x="2048" d="M896 256h-128v-128h-128v-128h-512v1152h512v-128h128v-128h128v-640zM1920 0h-768v384h128v128h128v128h128v128h128v256h-512v128h768v-384h-128v-128h-128v-128h-128v-128h-128v-256h512v-128zM640 256v640h-128v128h-128v-896h128v128h128z" />
<glyph unicode="&#x1f2;" horiz-adv-x="2048" d="M896 256h-128v-128h-128v-128h-512v1152h512v-128h128v-128h128v-640zM1920 0h-768v256h128v128h128v128h128v128h128v128h-512v128h768v-256h-128v-128h-128v-128h-128v-128h-128v-128h512v-128zM640 256v640h-128v128h-128v-896h128v128h128z" />
<glyph unicode="&#x1f3;" horiz-adv-x="2048" d="M896 0h-640v128h-128v640h128v128h384v256h256v-1152zM1920 0h-768v256h128v128h128v128h128v128h128v128h-512v128h768v-256h-128v-128h-128v-128h-128v-128h-128v-128h512v-128zM640 128v640h-256v-640h256z" />
<glyph unicode="&#x1f4;" d="M896 0h-640v128h-128v896h128v128h512v-128h128v-256h-256v256h-256v-896h256v256h-128v128h384v-512zM768 1408h-128v-128h-256v128h128v128h256v-128z" />
<glyph unicode="&#x1f5;" d="M896 -256h-128v-128h-640v128h512v256h-384v128h-128v640h128v128h640v-1152zM640 128v640h-256v-640h256zM896 1280h-128v-128h-128v-128h-256v128h128v256h384v-128z" />
<glyph unicode="&#x1f6;" d="M512 0v128h-128v384h-128v-512h-256v1152h256v-512h128v512h256v-1024h128v768h256v-768h-128v-128h-384z" />
<glyph unicode="&#x1f7;" d="M896 512h-128v-128h-128v-128h-128v-128h-128v-256h-256v1280h640v-128h128v-512zM640 512v512h-256v-640h128v128h128z" />
<glyph unicode="&#x1f8;" d="M1024 0h-256v384h-128v128h-128v128h-128v-640h-256v1152h256v-256h128v-128h128v-128h128v512h256v-1152zM640 1280h-256v128h-128v128h256v-128h128v-128z" />
<glyph unicode="&#x1f9;" d="M896 0h-256v768h-256v-768h-256v896h640v-128h128v-768zM640 1024h-256v128h-128v128h-128v128h384v-256h128v-128z" />
<glyph unicode="&#x1fa;" d="M896 0h-256v384h-256v-384h-256v896h128v256h-128v128h128v128h128v128h128v128h256v-128h-128v-128h128v-128h128v-128h-128v-256h128v-896zM640 512v384h-256v-384h256zM640 1152v128h-256v-128h256z" />
<glyph unicode="&#x1fb;" d="M896 0h-640v128h-128v256h128v128h384v256h-384v128h512v-128h128v-768zM896 1152h-128v-128h-512v128h-128v128h128v128h128v128h128v128h256v-128h-128v-128h128v-128h128v-128zM640 128v256h-256v-256h256zM640 1152v128h-256v-128h256z" />
<glyph unicode="&#x1fc;" d="M1024 0h-512v384h-128v-384h-256v896h128v128h128v128h640v-128h-256v-384h256v-128h-256v-384h256v-128zM896 1408h-128v-128h-256v128h128v128h256v-128zM512 512v384h-128v-384h128z" />
<glyph unicode="&#x1fd;" d="M1024 0h-384v128h-128v-128h-384v128h-128v256h128v128h256v256h-256v128h256v-128h128v128h384v-128h128v-384h-384v-256h384v-128zM896 1280h-128v-128h-128v-128h-256v128h128v256h384v-128zM384 128v256h-128v-256h128zM768 512v256h-128v-256h128z" />
<glyph unicode="&#x1fe;" d="M896 128h-128v-128h-640v1024h128v128h640v-1024zM768 1408h-128v-128h-256v128h128v128h256v-128zM640 128v384h-128v-256h-128v-128h256zM640 896v128h-256v-384h128v256h128z" />
<glyph unicode="&#x1ff;" d="M896 128h-128v-128h-640v768h128v128h640v-768zM896 1280h-128v-128h-128v-128h-256v128h128v256h384v-128zM640 128v256h-128v-128h-128v-128h256zM640 640v128h-256v-256h128v128h128z" />
<glyph unicode="&#x200;" d="M896 0h-256v384h-256v-384h-256v896h128v128h128v128h256v-128h128v-128h128v-896zM640 512v384h-256v-384h256zM896 1280h-256v128h-128v128h256v-128h128v-128zM512 1280h-256v128h-128v128h256v-128h128v-128z" />
<glyph unicode="&#x201;" d="M896 0h-640v128h-128v256h128v128h384v256h-384v128h512v-128h128v-768zM640 128v256h-256v-256h256zM896 1024h-256v128h-128v128h256v-128h128v-128zM512 1024h-256v128h-128v128h256v-128h128v-128z" />
<glyph unicode="&#x202;" d="M896 0h-256v384h-256v-384h-256v896h128v128h128v128h256v-128h128v-128h128v-896zM896 1280h-256v128h-256v-128h-256v128h128v128h512v-128h128v-128zM640 512v384h-256v-384h256z" />
<glyph unicode="&#x203;" d="M896 0h-640v128h-128v256h128v128h384v256h-384v128h512v-128h128v-768zM896 1024h-256v128h-256v-128h-256v128h128v128h512v-128h128v-128zM640 128v256h-256v-256h256z" />
<glyph unicode="&#x204;" d="M896 0h-768v1152h768v-128h-512v-384h384v-128h-384v-384h512v-128zM896 1280h-256v128h-128v128h256v-128h128v-128zM512 1280h-256v128h-128v128h256v-128h128v-128z" />
<glyph unicode="&#x205;" d="M896 384h-512v-256h384v-128h-512v128h-128v640h128v128h512v-128h128v-384zM640 512v256h-256v-256h256zM896 1024h-256v128h-128v128h256v-128h128v-128zM512 1024h-256v128h-128v128h256v-128h128v-128z" />
<glyph unicode="&#x206;" d="M896 0h-768v1152h768v-128h-512v-384h384v-128h-384v-384h512v-128zM896 1280h-256v128h-256v-128h-256v128h128v128h512v-128h128v-128z" />
<glyph unicode="&#x207;" d="M896 384h-512v-256h384v-128h-512v128h-128v640h128v128h512v-128h128v-384zM896 1024h-256v128h-256v-128h-256v128h128v128h512v-128h128v-128zM640 512v256h-256v-256h256z" />
<glyph unicode="&#x208;" d="M768 0h-512v128h128v896h-128v128h512v-128h-128v-896h128v-128zM896 1280h-256v128h-128v128h256v-128h128v-128zM512 1280h-256v128h-128v128h256v-128h128v-128z" />
<glyph unicode="&#x209;" d="M896 0h-768v128h256v640h-256v128h512v-768h256v-128zM768 1024h-256v128h-128v128h256v-128h128v-128zM384 1024h-256v128h-128v128h256v-128h128v-128z" />
<glyph unicode="&#x20a;" d="M768 0h-512v128h128v896h-128v128h512v-128h-128v-896h128v-128zM896 1280h-256v128h-256v-128h-256v128h128v128h512v-128h128v-128z" />
<glyph unicode="&#x20b;" d="M896 0h-768v128h256v640h-256v128h512v-768h256v-128zM896 1024h-256v128h-256v-128h-256v128h128v128h512v-128h128v-128z" />
<glyph unicode="&#x20c;" d="M896 128h-128v-128h-512v128h-128v896h128v128h512v-128h128v-896zM640 128v896h-256v-896h256zM896 1280h-256v128h-128v128h256v-128h128v-128zM512 1280h-256v128h-128v128h256v-128h128v-128z" />
<glyph unicode="&#x20d;" d="M896 128h-128v-128h-512v128h-128v640h128v128h512v-128h128v-640zM640 128v640h-256v-640h256zM896 1024h-256v128h-128v128h256v-128h128v-128zM512 1024h-256v128h-128v128h256v-128h128v-128z" />
<glyph unicode="&#x20e;" d="M896 128h-128v-128h-512v128h-128v896h128v128h512v-128h128v-896zM640 128v896h-256v-896h256zM896 1280h-256v128h-256v-128h-256v128h128v128h512v-128h128v-128z" />
<glyph unicode="&#x20f;" d="M896 128h-128v-128h-512v128h-128v640h128v128h512v-128h128v-640zM640 128v640h-256v-640h256zM896 1024h-256v128h-256v-128h-256v128h128v128h512v-128h128v-128z" />
<glyph unicode="&#x210;" d="M896 0h-256v384h-128v128h-128v-512h-256v1152h640v-128h128v-384h-128v-256h128v-384zM640 640v384h-256v-384h256zM896 1280h-256v128h-128v128h256v-128h128v-128zM512 1280h-256v128h-128v128h256v-128h128v-128z" />
<glyph unicode="&#x211;" d="M512 512h-128v-512h-256v896h256v-256h128v-128zM896 640h-384v128h128v128h256v-256zM896 1024h-256v128h-128v128h256v-128h128v-128zM512 1024h-256v128h-128v128h256v-128h128v-128z" />
<glyph unicode="&#x212;" d="M896 0h-256v384h-128v128h-128v-512h-256v1152h640v-128h128v-384h-128v-256h128v-384zM896 1280h-256v128h-256v-128h-256v128h128v128h512v-128h128v-128zM640 640v384h-256v-384h256z" />
<glyph unicode="&#x213;" d="M512 512h-128v-512h-256v896h256v-256h128v-128zM896 1024h-256v128h-256v-128h-256v128h128v128h512v-128h128v-128zM896 640h-384v128h128v128h256v-256z" />
<glyph unicode="&#x214;" d="M896 128h-128v-128h-512v128h-128v1024h256v-1024h256v1024h256v-1024zM896 1280h-256v128h-128v128h256v-128h128v-128zM512 1280h-256v128h-128v128h256v-128h128v-128z" />
<glyph unicode="&#x215;" d="M896 0h-640v128h-128v768h256v-768h256v768h256v-896zM896 1024h-256v128h-128v128h256v-128h128v-128zM512 1024h-256v128h-128v128h256v-128h128v-128z" />
<glyph unicode="&#x216;" d="M896 128h-128v-128h-512v128h-128v1024h256v-1024h256v1024h256v-1024zM896 1280h-256v128h-256v-128h-256v128h128v128h512v-128h128v-128z" />
<glyph unicode="&#x217;" d="M896 0h-640v128h-128v768h256v-768h256v768h256v-896zM896 1024h-256v128h-256v-128h-256v128h128v128h512v-128h128v-128z" />
<glyph unicode="&#x218;" d="M256 0v128h-128v128h256v-128h256v256h-128v128h-128v128h-128v128h-128v256h128v128h512v-128h128v-128h-256v128h-256v-256h128v-128h128v-128h128v-128h128v-256h-128v-128h-512zM256 -256h128v128h256v-128h-128v-128h-256v128z" />
<glyph unicode="&#x219;" d="M141 0v128h512v256h-384v128h-128v256h128v128h640v-128h-512v-256h384v-128h128v-256h-128v-128h-640zM256 -256h128v128h256v-128h-128v-128h-256v128z" />
<glyph unicode="&#x21a;" d="M640 0h-256v1024h-256v128h768v-128h-256v-1024zM256 -256h128v128h256v-128h-128v-128h-256v128z" />
<glyph unicode="&#x21b;" d="M896 0h-512v128h-128v640h-128v128h128v256h256v-256h384v-128h-384v-640h384v-128zM384 -128h256v-128h-128v-128h-256v128h128v128z" />
<glyph unicode="&#x21c;" d="M896 384v-384h-128v-128h-128v-128h-512v128h384v128h128v384h-384v128h256v128h128v384h-256v-256h-256v256h128v128h512v-128h128v-384h-128v-256h128z" />
<glyph unicode="&#x21d;" d="M128 -128h384v128h128v256h-256v128h128v128h128v256h-256v-128h-256v128h128v128h512v-128h128v-256h-128v-256h128v-256h-128v-128h-128v-128h-512v128z" />
<glyph unicode="&#x21e;" d="M896 0h-256v512h-256v-512h-256v1152h256v-512h256v512h256v-1152zM128 1664h256v-128h256v128h256v-128h-128v-128h-128v-128h-256v128h-128v128h-128v128z" />
<glyph unicode="&#x21f;" d="M896 0h-256v768h-256v-768h-256v1152h256v-256h384v-128h128v-768zM384 1408h-128v128h-128v128h256v-128h256v128h256v-128h-128v-128h-115v-128h-269v128z" />
<glyph unicode="&#x220;" d="M896 -384h-256v1408h-256v-1024h-256v1152h640v-128h128v-1408z" />
<glyph unicode="&#x221;" d="M128 128h-128v640h128v128h256v256h256v-768h128v-256h128v-128h-128v-256h-128v256h-512v128zM384 768h-128v-640h128v640zM768 512h128v-128h128v-256h-128v256h-128v128z" />
<glyph unicode="&#x222;" d="M896 768h-128v-128h128v-512h-128v-128h-512v128h-128v512h128v128h-128v384h256v-384h256v384h256v-384zM640 128v512h-256v-512h256z" />
<glyph unicode="&#x223;" d="M640 640v256h256v-256h-128v-128h128v-384h-128v-128h-512v128h-128v384h128v128h-128v256h256v-256h256zM640 128v384h-256v-384h256z" />
<glyph unicode="&#x224;" d="M896 -256h-128v-128h-384v128h256v256h-512v384h128v128h128v128h128v128h128v256h-512v128h768v-384h-128v-128h-128v-128h-128v-128h-128v-256h512v-384z" />
<glyph unicode="&#x225;" d="M896 -256h-128v-128h-384v128h256v256h-512v256h128v128h128v128h128v128h128v128h-512v128h768v-256h-128v-128h-128v-128h-128v-128h-128v-128h512v-384z" />
<glyph unicode="&#x226;" d="M896 0h-256v384h-256v-384h-256v896h128v128h128v128h256v-128h128v-128h128v-896zM640 512v384h-256v-384h256zM640 1280h-256v256h256v-256z" />
<glyph unicode="&#x227;" d="M896 0h-640v128h-128v256h128v128h384v256h-384v128h512v-128h128v-768zM640 128v256h-256v-256h256zM640 1024h-256v256h256v-256z" />
<glyph unicode="&#x228;" d="M896 0h-256v-128h128v-128h-128v-128h-384v128h256v128h-128v128h-256v1152h768v-128h-512v-384h384v-128h-384v-384h512v-128z" />
<glyph unicode="&#x229;" d="M896 384h-512v-256h384v-128h-128v-128h128v-128h-128v-128h-384v128h256v128h-128v128h-128v128h-128v640h128v128h512v-128h128v-384zM640 512v256h-256v-256h256z" />
<glyph unicode="&#x22a;" d="M896 128h-128v-128h-512v128h-128v896h128v128h512v-128h128v-896zM640 128v896h-256v-896h256zM896 1536h-768v128h768v-128zM384 1280h-256v128h256v-128zM896 1280h-256v128h256v-128z" />
<glyph unicode="&#x22b;" d="M896 128h-128v-128h-512v128h-128v640h128v128h512v-128h128v-640zM640 128v640h-256v-640h256zM896 1408h-768v128h768v-128zM384 1024h-256v256h256v-256zM896 1024h-256v256h256v-256z" />
<glyph unicode="&#x22c;" d="M896 128h-128v-128h-512v128h-128v896h128v128h512v-128h128v-896zM1024 1408h-128v-128h-384v128h-128v-128h-256v128h128v128h-128v128h896v-256zM640 128v896h-256v-896h256zM640 1408h128v128h-128v-128z" />
<glyph unicode="&#x22d;" d="M896 128h-128v-128h-512v128h-128v640h128v128h512v-128h128v-640zM640 128v640h-256v-640h256zM1024 1152h-128v-128h-384v128h-128v-128h-256v128h128v128h384v-128h128v128h256v-128zM1024 1408h-896v128h896v-128z" />
<glyph unicode="&#x22e;" d="M896 128h-128v-128h-512v128h-128v896h128v128h512v-128h128v-896zM640 128v896h-256v-896h256zM640 1280h-256v256h256v-256z" />
<glyph unicode="&#x22f;" d="M896 128h-128v-128h-512v128h-128v640h128v128h512v-128h128v-640zM640 128v640h-256v-640h256zM640 1024h-256v256h256v-256z" />
<glyph unicode="&#x230;" d="M896 128h-128v-128h-512v128h-128v896h128v128h512v-128h128v-896zM640 128v896h-256v-896h256zM896 1536h-768v128h768v-128zM640 1280h-256v128h256v-128z" />
<glyph unicode="&#x231;" d="M896 128h-128v-128h-512v128h-128v640h128v128h512v-128h128v-640zM640 128v640h-256v-640h256zM896 1408h-768v128h768v-128zM640 1024h-256v256h256v-256z" />
<glyph unicode="&#x232;" d="M896 640h-128v-128h-128v-512h-256v512h-128v128h-128v512h256v-512h256v512h256v-512zM896 1280h-768v128h768v-128z" />
<glyph unicode="&#x233;" d="M896 128h-128v-256h-128v-128h-128v-128h-512v128h384v128h128v128h-256v128h-128v768h256v-768h256v768h256v-768zM896 1024h-768v128h768v-128z" />
<glyph unicode="&#x234;" d="M640 128v256h128v-256h128v-128h-128v-256h-128v256h-256v128h-128v896h-128v128h384v-1024h128zM768 512h128v-128h128v-256h-128v256h-128v128z" />
<glyph unicode="&#x235;" d="M512 128h-128v640h-128v-768h-256v896h512v-128h128v-384h128v-256h128v-128h-128v-256h-128v256h-128v128zM896 384h-128v128h128v-128h128v-256h-128v256z" />
<glyph unicode="&#x236;" d="M640 0h-256v128h-128v640h-128v128h128v256h256v-256h384v-128h-384v-640h128v256h128v-256h128v-128h-128v-256h-128v256zM768 512h128v-128h128v-256h-128v256h-128v128z" />
<glyph unicode="&#x237;" d="M768 -256h-128v-128h-512v128h384v1024h-256v128h512v-1152z" />
<glyph unicode="&#x238;" d="M640 896h256v-128h128v-640h-128v-128h-768v128h-128v640h128v128h256v256h256v-256zM768 768h-128v-640h128v640zM256 128h128v640h-128v-640z" />
<glyph unicode="&#x239;" d="M0 768h128v128h768v-128h128v-640h-128v-128h-256v-384h-256v384h-256v128h-128v640zM256 768v-640h128v640h-128zM768 768h-128v-640h128v640z" />
<glyph unicode="&#x23a;" d="M512 256h-128v-256h-256v896h128v128h128v128h256v-128h128v-128h128v128h128v-256h-128v-768h-256v384h-128v-128zM512 512v128h128v256h-256v-384h128z" />
<glyph unicode="&#x23b;" d="M0 128h128v896h128v128h512v-128h256v-128h-128v-128h-128v-128h-128v-128h-128v-128h-128v-256h256v256h256v-256h-128v-128h-768v128zM640 1024h-256v-384h128v128h128v256z" />
<glyph unicode="&#x23c;" d="M640 384h-128v-128h-128v-128h256v128h256v-128h-128v-128h-640v768h128v128h640v-256h-128v-128h-128v-128zM640 768h-256v-256h128v128h128v128z" />
<glyph unicode="&#x23d;" d="M0 768h128v384h256v-384h256v-128h-256v-512h512v-128h-768v640h-128v128z" />
<glyph unicode="&#x23e;" d="M768 512h-128v-512h-256v256h-128v-128h-128v256h128v128h128v512h-256v128h768v-128h-256v-256h128v128h128v-256h-128v-128z" />
<glyph unicode="&#x23f;" d="M768 -128v-128h-384v128h-128v128h-128v128h512v256h-384v128h-128v256h128v128h640v-128h-512v-256h384v-128h128v-256h-128v-128h128v-128h-128v128h-256v-128h256z" />
<glyph unicode="&#x240;" d="M896 -256h-384v128h-128v128h-256v256h128v128h128v128h128v128h128v128h-512v128h768v-256h-128v-128h-128v-128h-128v-128h-128v-128h128v-128h128v-128h256v-128zM896 0h128v-128h-128v128z" />
<glyph unicode="&#x241;" d="M640 0h-256v512h256v512h-256v-256h-256v256h128v128h512v-128h128v-512h-128v-128h-128v-384z" />
<glyph unicode="&#x242;" d="M640 0h-256v256h128v128h128v384h-256v-128h-256v128h128v128h512v-128h128v-384h-128v-128h-128v-256z" />
<glyph unicode="&#x243;" d="M768 640v-128h128v-128h128v-128h-128v-128h-128v-128h-640v256h-128v128h128v768h640v-128h128v-384h-128zM640 640v384h-256v-384h256zM640 128v128h-256v-128h256zM384 384h256v128h-256v-128z" />
<glyph unicode="&#x244;" d="M0 640h128v512h256v-512h256v512h256v-512h128v-128h-128v-384h-128v-128h-512v128h-128v384h-128v128zM640 128v384h-256v-384h256z" />
<glyph unicode="&#x245;" d="M640 896h-256v-896h-256v896h128v128h128v128h256v-128h128v-128h128v-896h-256v896z" />
<glyph unicode="&#x246;" d="M896 0h-768v128h-128v256h128v768h768v-128h-512v-256h128v128h256v-128h-128v-128h-128v-128h-128v-384h512v-128z" />
<glyph unicode="&#x247;" d="M128 768h128v128h640v-512h-384v-128h-128v-128h384v-128h-640v768zM512 512v128h128v128h-256v-256h128z" />
<glyph unicode="&#x248;" d="M384 768h256v384h256v-384h128v-128h-128v-512h-128v-128h-512v128h-128v256h256v-256h256v512h-256v128z" />
<glyph unicode="&#x249;" d="M256 384h256v384h-256v128h512v-512h128v-128h-128v-512h-128v-128h-512v128h384v512h-256v128zM768 1024h-256v256h256v-256z" />
<glyph unicode="&#x24a;" d="M768 -256h-128v256h-384v128h-128v896h128v128h640v-1408h128v-128h-256v128zM384 128h256v896h-256v-896z" />
<glyph unicode="&#x24b;" d="M768 -256h-128v256h-384v141h-128v627h128v128h640v-1152h128v-128h-256v128zM384 141h256v627h-256v-627z" />
<glyph unicode="&#x24c;" d="M0 640h128v512h640v-128h128v-384h-128v-256h128v-384h-256v384h-128v128h-128v-512h-256v512h-128v128zM640 640v384h-256v-384h256z" />
<glyph unicode="&#x24d;" d="M0 384h128v512h256v-256h128v-128h-128v-128h256v-128h-256v-256h-256v256h-128v128zM896 640h-384v128h128v128h256v-256z" />
<glyph unicode="&#x24e;" d="M0 896h128v256h256v-256h256v256h256v-256h128v-128h-128v-128h-128v-128h-128v-512h-256v512h-128v128h-128v128h-128v128zM640 640v128h-256v-128h256z" />
<glyph unicode="&#x24f;" d="M0 640h128v256h256v-256h256v256h256v-256h128v-128h-128v-384h-128v-256h-128v-128h-128v-128h-512v128h384v128h128v128h-256v128h-128v384h-128v128zM640 128v384h-256v-384h256z" />
<glyph unicode="&#x250;" d="M896 512h-128v-128h-384v-256h384v-128h-512v128h-128v768h640v-128h128v-256zM640 512v256h-256v-256h256z" />
<glyph unicode="&#x251;" d="M640 128v640h-256v-640h256v-128h-384v128h-128v640h128v128h640v-768h128v-128h-256v128h-128z" />
<glyph unicode="&#x252;" d="M768 128v640h-256v128h384v-128h128v-640h-128v-128h-640v768h-128v128h256v-128h128v-640h256z" />
<glyph unicode="&#x253;" d="M896 128h-128v-128h-640v1152h128v128h384v-128h-256v-256h384v-128h128v-640zM640 128v640h-256v-640h256z" />
<glyph unicode="&#x254;" d="M896 128h-128v-128h-512v128h-128v128h256v-128h256v640h-256v-128h-256v128h128v128h512v-128h128v-640z" />
<glyph unicode="&#x255;" d="M256 128h-128v640h128v128h512v-128h128v-128h-256v128h-256v-640h256v256h128v-256h128v-128h-128v-256h-128v256h-384v128zM768 512h128v-128h128v-256h-128v256h-128v128z" />
<glyph unicode="&#x256;" d="M1024 -384h-256v128h-128v256h-384v128h-128v640h128v128h384v256h256v-1408h128v-128zM640 128v640h-256v-640h256z" />
<glyph unicode="&#x257;" d="M1152 1152h-256v-1152h-640v128h-128v640h128v128h384v256h128v128h384v-128zM640 768h-256v-640h256v640z" />
<glyph unicode="&#x258;" d="M896 128h-128v-128h-512v128h384v256h-512v384h128v128h512v-128h128v-640zM640 512v256h-256v-256h256z" />
<glyph unicode="&#x259;" d="M896 128h-128v-128h-512v128h-128v384h512v256h-384v128h512v-128h128v-640zM640 128v256h-256v-256h256z" />
<glyph unicode="&#x25a;" d="M1024 384v-128h-256v128h-128v-256h-128v-128h-384v128h-128v384h384v256h-256v128h384v-128h128v-256h128v128h128v-256h128zM384 384h-128v-256h128v256z" />
<glyph unicode="&#x25b;" d="M896 128h-128v-128h-512v128h-128v256h128v128h-128v256h128v128h512v-128h128v-128h-256v128h-256v-256h256v-128h-256v-256h256v128h256v-128z" />
<glyph unicode="&#x25c;" d="M896 128h-128v-128h-512v128h-128v128h256v-128h256v256h-256v128h256v256h-256v-128h-256v128h128v128h512v-128h128v-256h-128v-128h128v-256z" />
<glyph unicode="&#x25d;" d="M1024 384h-256v128h-256v-128h128v-256h-128v-128h-384v128h-128v128h256v-128h128v256h-128v128h128v256h-128v-128h-256v128h128v128h384v-128h128v-128h128v128h128v-256h128v-128z" />
<glyph unicode="&#x25e;" d="M896 128h-128v-128h-512v128h-128v640h128v128h512v-128h128v-256h-128v-128h128v-256zM640 128v256h-128v128h128v256h-256v-640h256z" />
<glyph unicode="&#x25f;" d="M896 256h-128v-512h-128v-128h-512v128h384v512h-256v128h256v384h-256v128h512v-512h128v-128z" />
<glyph unicode="&#x260;" d="M128 -256h512v256h-384v128h-128v640h128v128h384v256h128v128h384v-128h-256v-1408h-128v-128h-640v128zM640 768h-256v-640h256v640z" />
<glyph unicode="&#x261;" d="M896 -256h-128v-128h-640v128h512v256h-384v128h-128v640h128v128h640v-1152zM640 128v640h-256v-640h256z" />
<glyph unicode="&#x262;" d="M896 0h-640v128h-128v640h128v128h512v-128h128v-128h-256v128h-256v-640h256v256h-128v128h384v-512z" />
<glyph unicode="&#x263;" d="M1024 512h-128v-256h-128v-256h128v-256h-128v-128h-384v128h-128v256h128v256h-128v256h-128v384h256v-384h128v-256h128v256h128v384h256v-384zM640 -256v256h-128v-256h128z" />
<glyph unicode="&#x264;" d="M128 768h128v128h256v-128h128v-256h128v-128h128v-256h-128v-128h-384v128h-128v256h128v128h-256v256zM640 768v128h256v-128h128v-256h-256v256h-128zM640 128v256h-128v-256h128zM384 512h128v256h-128v-256z" />
<glyph unicode="&#x265;" d="M896 -384h-256v384h-384v128h-128v768h256v-768h256v768h256v-1280z" />
<glyph unicode="&#x266;" d="M896 0h-256v768h-256v-768h-256v1152h128v128h384v-128h-256v-256h384v-128h128v-768z" />
<glyph unicode="&#x267;" d="M896 -256h-128v-128h-384v128h256v1024h-256v-768h-256v1152h128v128h384v-128h-256v-256h384v-128h128v-1024z" />
<glyph unicode="&#x268;" d="M896 0h-768v128h256v256h-256v128h256v256h-256v128h512v-384h256v-128h-256v-256h256v-128zM640 1024h-256v256h256v-256z" />
<glyph unicode="&#x269;" d="M896 128h-128v-128h-384v128h-128v640h-128v128h384v-768h128v128h256v-128z" />
<glyph unicode="&#x26a;" d="M896 0h-768v128h256v640h-256v128h768v-128h-256v-640h256v-128z" />
<glyph unicode="&#x26b;" d="M640 128h256v-128h-768v128h256v512h-128v128h128v256h-256v128h512v-512h128v-128h-128v-384zM128 640h128v-128h-128v128zM768 768h128v-128h-128v128z" />
<glyph unicode="&#x26c;" d="M128 768h128v128h256v128h-256v128h512v-640h256v-128h-256v-256h256v-128h-768v128h256v256h-256v128h-128v256zM512 512v256h-128v-256h128z" />
<glyph unicode="&#x26d;" d="M512 -256h-128v1280h-256v128h512v-1408h256v-128h-384v128z" />
<glyph unicode="&#x26e;" d="M128 128h128v896h-128v128h384v-256h512v-384h-128v-256h128v-512h-128v-128h-512v128h-128v128h256v-128h256v512h-128v256h128v256h-256v-640h128v-128h-512v128z" />
<glyph unicode="&#x26f;" d="M128 896h256v-768h128v640h128v-640h128v768h256v-896h-768v128h-128v768z" />
<glyph unicode="&#x270;" d="M384 896v-768h128v640h128v-640h128v768h256v-1280h-256v384h-512v128h-128v768h256z" />
<glyph unicode="&#x271;" d="M512 -256h256v1024h-128v-640h-128v640h-128v-768h-256v896h768v-128h128v-1024h-128v-128h-384v128z" />
<glyph unicode="&#x272;" d="M0 -256h128v1152h640v-128h128v-768h-256v768h-256v-1024h-128v-128h-256v128z" />
<glyph unicode="&#x273;" d="M640 768h-256v-768h-256v896h640v-128h128v-1024h128v-128h-256v128h-128v1024z" />
<glyph unicode="&#x274;" d="M1024 0h-256v256h-128v128h-128v128h-128v-512h-256v896h256v-128h128v-128h128v-128h128v384h256v-896z" />
<glyph unicode="&#x275;" d="M896 128h-128v-128h-512v128h-128v640h128v128h512v-128h128v-640zM640 128v256h-256v-256h256zM640 512v256h-256v-256h256z" />
<glyph unicode="&#x276;" d="M1024 0h-768v128h-128v640h128v128h768v-128h-256v-256h256v-128h-256v-256h256v-128zM512 128v640h-128v-640h128z" />
<glyph unicode="&#x277;" d="M768 128v640h-384v-640h128v-128h-256v128h-128v640h128v128h640v-128h128v-640h-128v-128h-256v128h-128v512h128v-512h128z" />
<glyph unicode="&#x278;" d="M1024 128h-128v-128h-256v-384h-128v384h-256v128h-128v640h128v128h256v384h128v-384h256v-128h128v-640zM512 128v640h-128v-640h128zM768 128v640h-128v-640h128z" />
<glyph unicode="&#x279;" d="M512 384h128v512h256v-896h-256v256h-128v128zM128 256h384v-128h-128v-128h-256v256z" />
<glyph unicode="&#x27a;" d="M512 384h128v768h256v-1152h-256v256h-128v128zM128 256h384v-128h-128v-128h-256v256z" />
<glyph unicode="&#x27b;" d="M640 256h-128v128h128v512h256v-1152h128v-128h-256v128h-128v512zM512 256v-128h-128v-128h-256v256h384z" />
<glyph unicode="&#x27c;" d="M512 512h-128v-896h-256v1280h256v-256h128v-128zM896 640h-384v128h128v128h256v-256z" />
<glyph unicode="&#x27d;" d="M256 -256h-128v1152h256v-256h128v-128h-128v-768h256v-128h-384v128zM512 640v128h128v128h256v-256h-384z" />
<glyph unicode="&#x27e;" d="M640 768h-256v-768h-256v768h128v128h512v-128h128v-256h-256v256z" />
<glyph unicode="&#x27f;" d="M384 512h-256v256h128v128h512v-128h128v-768h-256v768h-256v-256z" />
<glyph unicode="&#x280;" d="M896 0h-256v384h-256v-384h-256v896h640v-128h128v-256h-128v-128h128v-384zM640 512v256h-256v-256h256z" />
<glyph unicode="&#x281;" d="M896 512h-128v-128h128v-256h-128v-128h-640v896h256v-384h256v384h256v-384zM384 384v-256h256v256h-256z" />
<glyph unicode="&#x282;" d="M640 -384h-384v128h-128v384h512v256h-384v128h-128v256h128v128h640v-128h-512v-256h384v-128h128v-256h-128v-128h-384v-256h256v-128z" />
<glyph unicode="&#x283;" d="M896 1024h-256v-1280h-128v-128h-384v128h256v1280h128v128h384v-128z" />
<glyph unicode="&#x284;" d="M896 128h-256v-384h-128v-128h-384v128h256v384h-256v128h256v768h128v128h384v-128h-256v-768h256v-128z" />
<glyph unicode="&#x285;" d="M896 0h-384v128h-128v640h-256v128h384v-128h128v-640h256v-128z" />
<glyph unicode="&#x286;" d="M896 -256h-128v128h-128v-128h-128v-128h-384v128h-128v256h128v128h256v896h128v128h384v-128h-256v-1024h128v-128h128v-128zM384 -256v256h-128v-256h128z" />
<glyph unicode="&#x287;" d="M896 256h-128v-256h-256v256h-384v128h384v640h-384v128h512v-128h128v-640h128v-128z" />
<glyph unicode="&#x288;" d="M896 -384h-512v128h-128v1024h-128v128h128v256h256v-256h384v-128h-384v-1024h384v-128z" />
<glyph unicode="&#x289;" d="M0 512h128v384h256v-384h256v384h256v-384h128v-128h-128v-384h-640v128h-128v256h-128v128zM640 128v256h-256v-256h256z" />
<glyph unicode="&#x28a;" d="M1024 128h-128v-128h-640v128h-128v512h128v128h-128v128h384v-128h-128v-640h384v640h-128v128h384v-128h-128v-128h128v-512z" />
<glyph unicode="&#x28b;" d="M896 128h-128v-128h-512v128h-128v768h256v-768h256v640h-128v128h256v-128h128v-640z" />
<glyph unicode="&#x28c;" d="M896 0h-256v640h-256v-640h-256v640h128v128h128v128h256v-128h128v-128h128v-640z" />
<glyph unicode="&#x28d;" d="M640 128h-128v512h-128v-640h-256v640h128v256h256v-256h128v-512zM1024 0h-256v640h-128v256h256v-256h128v-640z" />
<glyph unicode="&#x28e;" d="M1024 1024h-384v-128h-128v-128h256v-128h128v-640h-256v640h-256v-640h-256v640h128v256h128v128h128v128h512v-128z" />
<glyph unicode="&#x28f;" d="M896 512h-128v-128h-128v-384h-256v384h-128v128h-128v384h256v-384h256v384h256v-384z" />
<glyph unicode="&#x290;" d="M640 0h-512v256h128v128h128v128h128v128h128v128h-512v128h768v-256h-128v-128h-128v-128h-128v-128h-128v-128h512v-384h128v-128h-256v128h-128v256z" />
<glyph unicode="&#x291;" d="M768 512h-128v-128h128v-256h128v-128h-128v-256h-128v256h-512v256h128v128h128v128h128v128h128v128h-512v128h768v-256h-128v-128h128v-128h128v-256h-128v256h-128v128zM640 384h-128v-128h-128v-128h256v256z" />
<glyph unicode="&#x292;" d="M896 -256h-128v-128h-512v128h-128v128h256v-128h256v512h-384v128h128v128h128v128h128v128h-512v128h768v-256h-128v-128h-128v-128h128v-128h128v-512z" />
<glyph unicode="&#x293;" d="M1024 -128h-128v-128h-128v-128h-512v128h-128v256h128v128h384v128h-384v128h128v128h128v128h128v128h-512v128h768v-256h-128v-128h-128v-128h128v-128h128v-256h128v-128zM640 -256v256h-256v-256h256z" />
<glyph unicode="&#x294;" d="M640 0h-256v512h128v128h128v384h-256v-256h-256v256h128v128h512v-128h128v-384h-128v-128h-128v-512z" />
<glyph unicode="&#x295;" d="M384 512h-128v128h-128v384h128v128h512v-128h128v-256h-256v256h-256v-384h128v-128h128v-512h-256v512z" />
<glyph unicode="&#x296;" d="M384 1152h256v-512h128v-128h128v-384h-128v-128h-512v128h-128v256h256v-256h256v384h-128v128h-128v512z" />
<glyph unicode="&#x297;" d="M896 -256h-128v-128h-512v128h-128v1024h128v128h512v-128h128v-128h-256v128h-256v-1024h256v128h256v-128z" />
<glyph unicode="&#x298;" d="M1024 128h-128v-128h-640v128h-128v896h128v128h640v-128h128v-896zM768 128v896h-384v-896h384zM640 512h-128v128h128v-128z" />
<glyph unicode="&#x299;" d="M896 128h-128v-128h-640v896h640v-128h128v-256h-128v-128h128v-256zM640 128v256h-256v-256h256zM640 512v256h-256v-256h256z" />
<glyph unicode="&#x29a;" d="M896 128h-128v-128h-512v128h-128v256h128v128h-128v256h128v128h512v-128h128v-640zM640 128v640h-256v-256h128v-128h-128v-256h256z" />
<glyph unicode="&#x29b;" d="M896 640h-256v128h-256v-640h256v256h-128v128h384v-512h-640v128h-128v640h128v128h384v128h128v128h256v-128h-128v-384z" />
<glyph unicode="&#x29c;" d="M896 0h-256v384h-256v-384h-256v896h256v-384h256v384h256v-896z" />
<glyph unicode="&#x29d;" d="M896 -128h-128v-128h-128v-128h-384v128h-128v256h128v128h256v640h-256v128h512v-896h128v-128h128v-128h-128v128zM512 1024v256h256v-256h-256zM512 -256v256h-128v-256h128z" />
<glyph unicode="&#x29e;" d="M128 896h256v-256h128v-128h128v384h256v-1280h-256v768h-128v-128h-128v-256h-256v256h128v128h128v128h-128v128h-128v256z" />
<glyph unicode="&#x29f;" d="M896 0h-768v896h256v-768h512v-128z" />
<glyph unicode="&#x2a0;" d="M768 1280h384v-128h-256v-1536h-256v384h-384v128h-128v640h128v128h384v256h128v128zM640 768h-256v-640h256v640z" />
<glyph unicode="&#x2a1;" d="M128 384h256v128h128v128h128v384h-256v-128h-256v128h128v128h512v-128h128v-384h-128v-128h-128v-128h256v-128h-256v-256h-256v256h-256v128z" />
<glyph unicode="&#x2a2;" d="M896 256h-256v-256h-256v256h-256v128h256v128h-128v128h-128v384h128v128h512v-128h128v-128h-256v128h-256v-384h128v-128h128v-128h256v-128z" />
<glyph unicode="&#x2a3;" d="M128 0v128h-128v640h128v128h256v256h256v-256h384v-384h-128v-128h-128v-256h256v-128h-896zM384 768h-128v-640h128v640zM640 768v-256h128v256h-128z" />
<glyph unicode="&#x2a4;" d="M128 0v128h-128v640h128v128h256v256h256v-256h384v-384h-128v-256h128v-512h-128v-128h-384v128h-128v128h256v-128h128v512h-128v-256h-512zM384 768h-128v-640h128v640zM640 768v-256h128v256h-128z" />
<glyph unicode="&#x2a5;" d="M768 -128h-128v128h-512v128h-128v640h128v128h256v256h256v-256h384v-384h-128v-128h128v-384h-256v-128zM384 768h-128v-640h128v640zM640 768v-256h128v256h-128zM896 256h-128v-128h128v128z" />
<glyph unicode="&#x2a6;" d="M1024 128h-128v-128h-512v128h-128v640h-128v128h128v256h256v-256h512v-128h-256v-256h128v-128h128v-256zM768 128v256h-128v128h-128v-384h256z" />
<glyph unicode="&#x2a7;" d="M1152 1152h-256v-1280h-128v-128h-384v128h256v128h-256v128h-128v640h-128v128h128v256h256v-256h128v256h128v128h384v-128zM512 128h128v640h-128v-640z" />
<glyph unicode="&#x2a8;" d="M768 768v-256h128v-128h128v-256h-128v256h-128v-256h128v-128h-256v128h-128v-128h-256v128h-128v640h-128v128h128v256h256v-256h128v-128h128v128h256v-128h128v-128h-128v128h-128zM384 256v512h128v-512h-128z" />
<glyph unicode="&#x2a9;" d="M1024 -256h-128v-128h-384v128h256v896h-128v-640h-128v640h-128v-640h-256v640h-128v128h128v256h128v128h512v-128h-384v-256h512v-128h128v-896z" />
<glyph unicode="&#x2aa;" d="M128 1152h384v-384h128v128h384v-128h-256v-256h128v-128h128v-256h-128v-128h-768v128h128v896h-128v128zM512 512v-384h256v256h-128v128h-128z" />
<glyph unicode="&#x2ab;" d="M768 384v-256h256v-128h-896v128h128v896h-128v128h384v-256h512v-384h-128v-128h-128zM640 512h128v256h-256v-384h128v128z" />
<glyph unicode="&#x2ac;" d="M1024 896h-128v-256h-256v128h-128v-128h-256v256h-128v256h256v-256h128v256h128v-256h128v256h256v-256zM1024 256h-128v-256h-256v128h-128v-128h-256v256h-128v256h256v-256h128v256h128v-256h128v256h256v-256z" />
<glyph unicode="&#x2ad;" d="M896 512h-128v128h-512v-128h-128v384h768v-384zM896 -128h-128v128h-512v-128h-128v384h768v-384z" />
<glyph unicode="&#x2ae;" d="M384 896v-768h256v768h256v-1280h-256v384h-384v128h-128v768h-256v128h384v-128h128z" />
<glyph unicode="&#x2af;" d="M768 -256h-128v256h-384v128h-128v768h-256v128h384v-128h128v-768h256v768h256v-1152h256v-128h-384v128z" />
<glyph unicode="&#x2b0;" d="M896 640h-256v512h-128v-512h-256v896h256v-256h256v-128h128v-512z" />
<glyph unicode="&#x2b1;" d="M896 640h-256v384h-128v-384h-256v768h128v128h384v-128h128v-128h-256v128h-128v-256h256v-128h128v-384z" />
<glyph unicode="&#x2b2;" d="M640 512v-128h-384v128h256v512h-128v128h384v-640h-128zM512 1280v256h256v-256h-256z" />
<glyph unicode="&#x2b3;" d="M640 1024h-128v-384h-256v640h256v-128h128v-128zM896 1152h-256v128h256v-128z" />
<glyph unicode="&#x2b4;" d="M896 640h-256v128h-128v128h128v384h256v-640zM512 640h-256v128h256v-128z" />
<glyph unicode="&#x2b5;" d="M896 384h-256v128h-128v256h-128v128h128v384h256v-768h128v-128zM384 640h-256v128h256v-128z" />
<glyph unicode="&#x2b6;" d="M896 768h-128v-128h-512v640h256v-256h128v256h256v-256h-128v-128h128v-128zM640 768v128h-128v-128h128z" />
<glyph unicode="&#x2b7;" d="M1024 896h-128v-256h-256v256h-128v256h128v-256h128v384h256v-384zM512 640h-256v256h-128v384h256v-384h128v-256z" />
<glyph unicode="&#x2b8;" d="M896 768h-128v-128h-128v-128h-128v-128h-384v128h256v256h-128v512h256v-512h128v512h256v-512z" />
<glyph unicode="&#x2b9;" d="M512 1152v-128h-256v128h128v128h128v128h256v-256h-256zM128 896v128h128v-128h-128z" />
<glyph unicode="&#x2ba;" d="M384 1152v-128h-256v128h128v128h128v128h256v-256h-256zM0 896v128h128v-128h-128zM768 1024v-128h-256v128h128v128h128v128h256v-256h-256zM384 768v128h128v-128h-128z" />
<glyph unicode="&#x2bb;" d="M768 1024h-384v384h128v128h256v-128h-128v-128h128v-256z" />
<glyph unicode="&#x2bc;" d="M768 1152h-128v-128h-256v128h128v128h-128v256h384v-384z" />
<glyph unicode="&#x2bd;" d="M384 1536h384v-256h-128v-128h128v-128h-256v128h-128v384z" />
<glyph unicode="&#x2be;" d="M768 1152h-128v-128h-256v128h128v256h-128v128h256v-128h128v-256z" />
<glyph unicode="&#x2bf;" d="M256 1408h128v128h256v-128h-128v-256h128v-128h-256v128h-128v256z" />
<glyph unicode="&#x2c0;" d="M640 640h-256v384h128v128h128v256h-128v-128h-256v128h128v128h384v-128h128v-256h-128v-128h-128v-384z" />
<glyph unicode="&#x2c1;" d="M512 1024h-128v128h-128v256h128v128h384v-128h128v-128h-256v128h-128v-256h128v-128h128v-384h-256v384z" />
<glyph unicode="&#x2c2;" d="M640 1024v-128h128v-128h-256v128h-128v128h-128v128h128v128h128v128h256v-128h-128v-128h-128v-128h128z" />
<glyph unicode="&#x2c3;" d="M512 1024v128h-128v128h-128v128h256v-128h128v-128h128v-128h-128v-128h-128v-128h-256v128h128v128h128z" />
<glyph unicode="&#x2c4;" d="M896 896h-256v256h-256v-256h-256v256h128v128h128v128h256v-128h128v-128h128v-256z" />
<glyph unicode="&#x2c5;" d="M896 1280h-128v-128h-128v-128h-256v128h-128v128h-128v256h256v-256h256v256h256v-256z" />
<glyph unicode="&#x2c6;" d="M896 1280h-256v128h-256v-128h-256v128h128v128h512v-128h128v-128z" />
<glyph unicode="&#x2c7;" d="M896 1408h-128v-128h-384v128h-128v128h256v-128h128v128h256v-128z" />
<glyph unicode="&#x2c8;" d="M640 640h-256v512h256v-512z" />
<glyph unicode="&#x2c9;" d="M896 1280h-768v128h768v-128z" />
<glyph unicode="&#x2ca;" d="M640 1152v-128h-256v128h128v128h128v128h128v-256h-128zM256 896v128h128v-128h-128z" />
<glyph unicode="&#x2cb;" d="M256 1152v256h128v-128h128v-128h128v-128h-256v128h-128zM640 896v128h128v-128h-128z" />
<glyph unicode="&#x2cc;" d="M640 -256h-256v512h256v-512z" />
<glyph unicode="&#x2cd;" d="M128 -128h768v-128h-768v128z" />
<glyph unicode="&#x2ce;" d="M256 256v256h128v-128h128v-128h128v-128h-256v128h-128zM640 0v128h128v-128h-128z" />
<glyph unicode="&#x2cf;" d="M640 256v-128h-256v128h128v128h128v128h128v-256h-128zM256 0v128h128v-128h-128z" />
<glyph unicode="&#x2d0;" d="M384 896h384v-128h-128v-128h-128v128h-128v128zM384 0v128h128v128h128v-128h128v-128h-384z" />
<glyph unicode="&#x2d1;" d="M384 896h384v-128h-128v-128h-128v128h-128v128z" />
<glyph unicode="&#x2d2;" d="M768 512h-128v-128h-256v128h128v256h-128v128h256v-128h128v-256z" />
<glyph unicode="&#x2d3;" d="M256 768h128v128h256v-128h-128v-256h128v-128h-256v128h-128v256z" />
<glyph unicode="&#x2d4;" d="M128 512h256v256h256v-256h256v-128h-768v128z" />
<glyph unicode="&#x2d5;" d="M128 512h768v-128h-256v-256h-256v256h-256v128z" />
<glyph unicode="&#x2d6;" d="M128 512h256v256h256v-256h256v-128h-256v-256h-256v256h-256v128z" />
<glyph unicode="&#x2d7;" d="M128 384v256h768v-256h-128v128h-512v-128h-128z" />
<glyph unicode="&#x2d8;" d="M896 1408h-128v-128h-512v128h-128v128h256v-128h256v128h256v-128z" />
<glyph unicode="&#x2d9;" d="M640 1280h-256v256h256v-256z" />
<glyph unicode="&#x2da;" d="M256 1152v128h-128v128h128v128h512v-128h128v-128h-128v-128h-512zM640 1408h-256v-128h256v128z" />
<glyph unicode="&#x2db;" d="M512 -384v128h-128v256h256v-256h256v-128h-384z" />
<glyph unicode="&#x2dc;" d="M1024 1408h-128v-128h-384v128h-128v-128h-256v128h128v128h384v-128h128v128h256v-128z" />
<glyph unicode="&#x2dd;" d="M128 1408h128v128h256v-128h-128v-128h-256v128zM512 1408h128v128h256v-128h-128v-128h-256v128z" />
<glyph unicode="&#x2de;" d="M512 512h-128v-128h-256v128h128v128h384v-128h128v256h-128v128h128h128v-128h128v-256h-128v-128h-384v128z" />
<glyph unicode="&#x2df;" d="M768 1024v-256h-128v128h-256v-128h-128v256h128v128h-128v256h128v-128h256v128h128v-256h-128v-128h128z" />
<glyph unicode="&#x2e0;" d="M384 512h-128v128h128v128h-128v512h256v-512h128v512h256v-512h-128v-128h128v-128h-128v-128h-384v128zM640 640h-128v-128h128v128z" />
<glyph unicode="&#x2e1;" d="M256 768h128v640h-128v128h384v-768h128v-128h-512v128z" />
<glyph unicode="&#x2e2;" d="M512 1152v-128h256v-128h128v-128h-128v-128h-512v128h384v128h-256v128h-128v128h128v128h512v-128h-384z" />
<glyph unicode="&#x2e3;" d="M640 1280h256v-256h-128v-128h128v-256h-256v256h-128v-256h-256v256h128v128h-128v256h256v-256h128v256z" />
<glyph unicode="&#x2e4;" d="M384 896h-128v128h-128v256h128v128h512v-128h128v-128h-256v128h-256v-256h128v-128h128v-384h-256v384z" />
<glyph unicode="&#x2e5;" d="M128 1152h768v-1152h-256v1024h-512v128z" />
<glyph unicode="&#x2e6;" d="M128 896h512v256h256v-1152h-256v768h-512v128z" />
<glyph unicode="&#x2e7;" d="M128 640h512v512h256v-1152h-256v512h-512v128z" />
<glyph unicode="&#x2e8;" d="M128 384h512v768h256v-1152h-256v256h-512v128z" />
<glyph unicode="&#x2e9;" d="M128 128h512v1024h256v-1152h-768v128z" />
<glyph unicode="&#x2ea;" d="M896 0h-768v896h256v-768h512v-128z" />
<glyph unicode="&#x2eb;" d="M384 0h-256v896h256v-384h512v-128h-512v-384z" />
<glyph unicode="&#x2ec;" d="M640 0h256v-128h-128v-128h-128v-128h-256v128h-128v128h-128v128h256v-128h256v128z" />
<glyph unicode="&#x2ed;" d="M128 1152h768v-128h-768v128zM128 896h768v-128h-768v128z" />
<glyph unicode="&#x2ee;" d="M512 1152h-128v-128h-256v128h128v128h-128v256h384v-384zM1024 1152h-128v-128h-256v128h128v128h-128v256h384v-384z" />
<glyph unicode="&#x2ef;" d="M640 128h256v-256h-128v-128h-128v-128h-256v128h-128v128h-128v256h256v-256h256v256z" />
<glyph unicode="&#x2f0;" d="M896 -384h-256v256h-256v-256h-256v256h128v128h128v128h256v-128h128v-128h128v-256z" />
<glyph unicode="&#x2f1;" d="M640 -128v-128h128v-128h-256v128h-128v128h-128v128h128v128h128v128h256v-128h-128v-128h-128v-128h128z" />
<glyph unicode="&#x2f2;" d="M512 -128v128h-128v128h-128v128h256v-128h128v-128h128v-128h-128v-128h-128v-128h-256v128h128v128h128z" />
<glyph unicode="&#x2f3;" d="M256 -384v128h-128v128h128v128h512v-128h128v-128h-128v-128h-512zM640 -128h-256v-128h256v128z" />
<glyph unicode="&#x2f4;" d="M256 640v256h128v-128h128v-128h128v-128h-256v128h-128zM640 384v128h128v-128h-128z" />
<glyph unicode="&#x2f5;" d="M0 640v256h128v-128h128v-128h128v-128h-256v128h-128zM384 384v128h128v-128h-128zM512 640v256h128v-128h128v-128h128v-128h-256v128h-128zM896 384v128h128v-128h-128z" />
<glyph unicode="&#x2f6;" d="M896 640v-128h-256v128h128v128h128v128h128v-256h-128zM512 384v128h128v-128h-128zM384 640v-128h-256v128h128v128h128v128h128v-256h-128zM0 384v128h128v-128h-128z" />
<glyph unicode="&#x2f7;" d="M1024 -256h-128v-128h-384v128h-128v128h-128v-128h-128v-128h-128v256h128v128h384v-128h128v-128h128v128h128v128h128v-256z" />
<glyph unicode="&#x2f8;" d="M768 1024h-384v256h384v-256zM768 384h-384v256h384v-256z" />
<glyph unicode="&#x2f9;" d="M256 1152h512v-128h-256v-384h-256v512z" />
<glyph unicode="&#x2fa;" d="M768 640h-256v384h-256v128h512v-512z" />
<glyph unicode="&#x2fb;" d="M256 512h256v-384h256v-128h-512v512z" />
<glyph unicode="&#x2fc;" d="M768 0h-512v128h256v384h256v-512z" />
<glyph unicode="&#x2fd;" horiz-adv-x="1152" d="M896 0h256v-384h-1024v384h256v-256h512v256z" />
<glyph unicode="&#x2fe;" horiz-adv-x="1152" d="M1152 -256v-128h-1024v384h256v-256h768z" />
<glyph unicode="&#x2ff;" d="M512 -256h128v-128h-256v128h-128v128h-128v128h128v128h128v128h256v-128h-128v-128h512v-128h-512v-128z" />
<glyph unicode="&#x302;" horiz-adv-x="0" d="M-128 1024h-256v128h-256v-128h-256v128h128v128h128v128h256v-128h128v-128h128v-128z" />
<glyph unicode="&#x303;" horiz-adv-x="0" d="M0 1152h-128v-128h-384v128h-128v128h-128v-128h-128v-128h-128v256h128v128h384v-128h128v-128h128v128h128v128h128v-256z" />
<glyph unicode="&#x304;" horiz-adv-x="0" d="M-896 1152h768v-128h-768v128z" />
<glyph unicode="&#x305;" horiz-adv-x="0" d="M0 1408h-1024v128h1024v-128z" />
<glyph unicode="&#x306;" horiz-adv-x="0" d="M-128 1152h-128v-128h-512v128h-128v128h256v-128h256v128h256v-128z" />
<glyph unicode="&#x307;" horiz-adv-x="0" d="M-384 1024h-256v256h256v-256z" />
<glyph unicode="&#x308;" horiz-adv-x="0" d="M-128 1024h-256v256h256v-256zM-640 1024h-256v256h256v-256z" />
<glyph unicode="&#x309;" horiz-adv-x="0" d="M-640 1152h128v256h-128v128h256v-128h128v-128h-128v-256h-256v128zM-768 1280v128h128v-128h-128z" />
<glyph unicode="&#x30a;" horiz-adv-x="0" d="M-128 1152h-128v-128h-512v128h-128v128h128v128h512v-128h128v-128zM-384 1152v128h-256v-128h256z" />
<glyph unicode="&#x30b;" horiz-adv-x="0" d="M-512 1280h-128v-128h-128v-128h-256v128h128v256h384v-128zM0 1280h-128v-128h-128v-128h-256v128h128v256h384v-128z" />
<glyph unicode="&#x30c;" horiz-adv-x="0" d="M-128 1280h-128v-128h-128v-128h-256v128h-128v128h-128v128h256v-128h256v128h256v-128z" />
<glyph unicode="&#x30d;" horiz-adv-x="0" d="M-640 1408h256v-384h-256v384z" />
<glyph unicode="&#x30e;" horiz-adv-x="0" d="M-896 1408h256v-384h-256v384zM-384 1408h256v-384h-256v384z" />
<glyph unicode="&#x30f;" horiz-adv-x="0" d="M-128 1024h-256v128h-128v128h256v-128h128v-128zM-512 1024h-256v128h-128v128h256v-128h128v-128z" />
<glyph unicode="&#x310;" horiz-adv-x="0" d="M-256 1152v-128h-512v128h-128v128h256v-128h256v128h-256v256h256v-256h256v-128h-128z" />
<glyph unicode="&#x311;" horiz-adv-x="0" d="M-128 1024h-256v128h-256v-128h-256v128h128v128h512v-128h128v-128z" />
<glyph unicode="&#x312;" horiz-adv-x="0" d="M-256 1024h-384v384h128v128h256v-128h-128v-128h128v-256z" />
<glyph unicode="&#x313;" horiz-adv-x="0" d="M-640 1152h128v128h-128v256h384v-384h-128v-128h-256v128z" />
<glyph unicode="&#x314;" horiz-adv-x="0" d="M-256 1024h-256v128h-128v384h384v-256h-128v-128h128v-128z" />
<glyph unicode="&#x315;" horiz-adv-x="0" d="M-128 1024h128v128h-128v256h384v-384h-128v-128h-256v128z" />
<glyph unicode="&#x316;" horiz-adv-x="0" d="M-512 -384v128h-128v128h256v-128h128v-128h-256z" />
<glyph unicode="&#x317;" horiz-adv-x="0" d="M-768 -256h128v128h256v-128h-128v-128h-256v128z" />
<glyph unicode="&#x318;" horiz-adv-x="0" d="M-640 -256v128h256v128h128v-384h-128v128h-256z" />
<glyph unicode="&#x319;" horiz-adv-x="0" d="M-512 -256v-128h-128v384h128v-128h256v-128h-256z" />
<glyph unicode="&#x31a;" horiz-adv-x="0" d="M-896 1408h768v-384h-256v256h-512v128z" />
<glyph unicode="&#x31b;" horiz-adv-x="0" d="M0 768v-128h-256v128h128v256h256v-256h-128z" />
<glyph unicode="&#x31c;" horiz-adv-x="0" d="M-768 -384v128h-128v128h128v128h256v-128h-128v-128h128v-128h-256z" />
<glyph unicode="&#x31d;" horiz-adv-x="0" d="M-768 -256h128v128h256v-128h128v-128h-512v128z" />
<glyph unicode="&#x31e;" horiz-adv-x="0" d="M-256 -128v-128h-128v-128h-256v128h-128v128h512z" />
<glyph unicode="&#x31f;" horiz-adv-x="0" d="M-640 -128v128h256v-128h128v-128h-128v-128h-256v128h-128v128h128z" />
<glyph unicode="&#x320;" horiz-adv-x="0" d="M-896 -384v256h768v-256h-128v128h-512v-128h-128z" />
<glyph unicode="&#x321;" horiz-adv-x="0" d="M-256 -256v-128h-384v128h256v256h256v-256h-128z" />
<glyph unicode="&#x322;" horiz-adv-x="0" d="M-384 0h256v-256h128v-128h-256v128h-128v256z" />
<glyph unicode="&#x323;" horiz-adv-x="0" d="M-640 -128h256v-256h-256v256z" />
<glyph unicode="&#x324;" horiz-adv-x="0" d="M-384 -128h256v-256h-256v256zM-896 -128h256v-256h-256v256z" />
<glyph unicode="&#x325;" horiz-adv-x="0" d="M-128 -256h-128v-128h-512v128h-128v128h128v128h512v-128h128v-128zM-384 -256v128h-256v-128h256z" />
<glyph unicode="&#x326;" horiz-adv-x="0" d="M-640 -256h128v128h-128v256h384v-384h-128v-128h-256v128z" />
<glyph unicode="&#x327;" horiz-adv-x="0" d="M-384 -128h128v-128h-128v-128h-384v128h256v128h-128v128h256v-128z" />
<glyph unicode="&#x328;" horiz-adv-x="0" d="M-384 -384v128h-128v256h256v-256h256v-128h-384z" />
<glyph unicode="&#x329;" horiz-adv-x="0" d="M-640 0h256v-384h-256v384z" />
<glyph unicode="&#x32a;" horiz-adv-x="0" d="M-896 -384v256h768v-256h-256v128h-256v-128h-256z" />
<glyph unicode="&#x32b;" horiz-adv-x="0" d="M-512 -128h128v-128h128v128h256v-128h-128v-128h-640v128h-128v128h256v-128h128v128z" />
<glyph unicode="&#x32c;" horiz-adv-x="0" d="M-128 -256h-128v-128h-384v128h-128v128h256v-128h128v128h256v-128z" />
<glyph unicode="&#x32d;" horiz-adv-x="0" d="M-384 -256h-128v-128h-256v128h128v128h384v-128h128v-128h-256v128z" />
<glyph unicode="&#x32e;" horiz-adv-x="0" d="M-128 -256h-128v-128h-512v128h-128v128h256v-128h256v128h256v-128z" />
<glyph unicode="&#x32f;" horiz-adv-x="0" d="M-384 -256h-256v-128h-256v128h128v128h512v-128h128v-128h-256v128z" />
<glyph unicode="&#x330;" horiz-adv-x="0" d="M0 -256h-128v-128h-384v128h-128v-128h-256v128h128v128h384v-128h128v128h256v-128z" />
<glyph unicode="&#x331;" horiz-adv-x="0" d="M-896 -128h768v-128h-768v128z" />
<glyph unicode="&#x332;" horiz-adv-x="0" d="M-1024 -256h1024v-128h-1024v128z" />
<glyph unicode="&#x333;" horiz-adv-x="0" d="M-1024 -256h1024v-128h-1024v128zM-1024 0h1024v-128h-1024v128z" />
<glyph unicode="&#x334;" horiz-adv-x="0" d="M-128 384v-128h-384v128h-128v128h-128v-128h-128v-128h-128v256h128v128h384v-128h128v-128h128v128h128v128h128v-256h-128z" />
<glyph unicode="&#x335;" horiz-adv-x="0" d="M-128 384h-768v128h768v-128z" />
<glyph unicode="&#x336;" horiz-adv-x="0" d="M0 384h-1024v128h1024v-128z" />
<glyph unicode="&#x337;" horiz-adv-x="0" d="M-768 256h128v-128h-128v128zM-896 128h128v-128h-128v128zM-256 768h128v-128h-128v128zM-512 512h128v-128h-128v128zM-640 384h128v-128h-128v128zM-384 640h128v-128h-128v128zM-128 896h128v-128h-128v128z" />
<glyph unicode="&#x338;" horiz-adv-x="0" d="M-256 896v-256h-128v-256h-128v-256h-128v-256h-256v256h128v256h128v256h128v256h128v256h256v-256h-128z" />
<glyph unicode="&#x339;" horiz-adv-x="0" d="M-384 -128h-128v128h256v-128h128v-128h-128v-128h-256v128h128v128z" />
<glyph unicode="&#x33a;" horiz-adv-x="0" d="M-384 -256v128h256v-256h-768v256h256v-128h256z" />
<glyph unicode="&#x33b;" horiz-adv-x="0" d="M-640 0h384v-384h-384v384zM-512 -256h128v128h-128v-128z" />
<glyph unicode="&#x33c;" horiz-adv-x="0" d="M-640 -384v128h-256v128h256v-128h256v-128h-256zM-384 -256v128h256v-128h-256z" />
<glyph unicode="&#x33d;" horiz-adv-x="0" d="M-384 1152h-256v256h-128v128h128v-128h256v-256h128v-128h-128v128zM-768 1152h128v-128h-128v128zM-384 1536h128v-128h-128v128z" />
<glyph unicode="&#x33e;" horiz-adv-x="0" d="M-768 1152h128v256h128v128h256v-128h-128v-256h-128v-128h-256v128z" />
<glyph unicode="&#x33f;" horiz-adv-x="0" d="M-1024 1152h1024v-128h-1024v128zM-1024 1408h1024v-128h-1024v128z" />
<glyph unicode="&#x340;" horiz-adv-x="0" d="M-1024 1536h256v-128h128v-128h-256v128h-128v128z" />
<glyph unicode="&#x341;" horiz-adv-x="0" d="M-384 1408h128v128h256v-128h-128v-128h-256v128z" />
<glyph unicode="&#x342;" horiz-adv-x="0" d="M0 1152h-128v-128h-384v128h-128v128h-128v-128h-128v-128h-128v256h128v128h384v-128h128v-128h128v128h128v128h128v-256z" />
<glyph unicode="&#x343;" d="M-256 1152h-128v-128h-256v128h128v128h-128v256h384v-384z" />
<glyph unicode="&#x344;" horiz-adv-x="0" d="M-384 1024h-256v512h256v-512zM-768 1024h-256v256h256v-256zM0 1024h-256v256h256v-256z" />
<glyph unicode="&#x345;" horiz-adv-x="0" d="M-256 -384h-256v128h-128v256h256v-256h128v-128z" />
<glyph unicode="&#x346;" horiz-adv-x="0" d="M-896 1024v256h768v-256h-128v128h-512v-128h-128z" />
<glyph unicode="&#x347;" horiz-adv-x="0" d="M-896 -256h768v-128h-768v128zM-896 0h768v-128h-768v128z" />
<glyph unicode="&#x348;" horiz-adv-x="0" d="M-384 0h256v-384h-256v384zM-896 0h256v-384h-256v384z" />
<glyph unicode="&#x349;" horiz-adv-x="0" d="M-768 -128h512v-256h-256v128h-256v128z" />
<glyph unicode="&#x34a;" horiz-adv-x="0" d="M-384 1536h128v-128h256v-128h-128v-128h-384v128h-128v-128h128v-128h-128v128h-256v128h128v128h384v128zM-384 1280h128v128h-128v-128z" />
<glyph unicode="&#x34b;" horiz-adv-x="0" d="M-128 1152v-128h-384v128h-128v128h-128v-128h-128v-128h-128v256h128v128h384v-128h128v-128h128v128h128v128h128v-256h-128zM-384 1536h128v-128h-128v128zM-768 1024h128v-128h-128v128z" />
<glyph unicode="&#x34c;" horiz-adv-x="0" d="M0 1152h-128v-128h-384v128h-128v-128h-256v128h128v128h384v-128h128v128h256v-128zM-128 1408h-128v-128h-384v128h-128v-128h-256v128h128v128h384v-128h128v128h256v-128z" />
<glyph unicode="&#x34d;" horiz-adv-x="0" d="M-256 -256h-512v-128h-128v128h-128v128h128v128h128v-128h512v128h128v-128h128v-128h-128v-128h-128v128z" />
<glyph unicode="&#x34e;" horiz-adv-x="0" d="M-384 -128v-256h-256v256h-128v128h128v128h256v-128h128v-128h-128z" />
<glyph unicode="&#x34f;" horiz-adv-x="0" />
<glyph unicode="&#x350;" d="M512 1280h-128v128h256v-128h128v-128h-128v-128h-256v128h128v128z" />
<glyph unicode="&#x351;" horiz-adv-x="0" d="M-256 1152v-128h-256v128h-128v256h128v128h256v-128h-128v-256h128z" />
<glyph unicode="&#x352;" horiz-adv-x="0" d="M-128 1408v-128h-256v-256h-256v256h256v128h-256v-128h-256v128h128v128h512v-128h128z" />
<glyph unicode="&#x353;" horiz-adv-x="0" d="M-384 -256h256v-128h-256v128h-256v128h-256v128h256v-128h256v-128zM-896 -256h256v-128h-256v128zM-384 0h256v-128h-256v128z" />
<glyph unicode="&#x354;" horiz-adv-x="0" d="M-384 -256h128v-128h-256v128h-128v128h128v128h256v-128h-128v-128z" />
<glyph unicode="&#x355;" horiz-adv-x="0" d="M-512 -128h-128v128h256v-128h128v-128h-128v-128h-256v128h128v128z" />
<glyph unicode="&#x356;" horiz-adv-x="0" d="M-384 -384h-256v128h128v128h128v128h128v-128h128v-128h128v-128h-256v128h-128v-128zM-896 -128h-128v128h256v-128h128v-128h-128v-128h-256v128h128v128z" />
<glyph unicode="&#x357;" horiz-adv-x="0" d="M-256 1152h-128v-128h-256v128h128v256h-128v128h256v-128h128v-256z" />
<glyph unicode="&#x359;" horiz-adv-x="0" d="M0 -128h-256v-128h128v-128h-256v128h-128v-128h-256v128h128v128h-256v128h256v128h-128v128h256v-128h128v128h256v-128h-128v-128h256v-128z" />
<glyph unicode="&#x35a;" horiz-adv-x="0" d="M0 -384h-384v128h-128v-128h-384v128h-128v128h128v128h384v-128h128v128h384v-128h128v-128h-128v-128zM-128 -128h-128v-128h128v128zM-640 -128h-128v-128h128v128z" />
<glyph unicode="&#x35d;" horiz-adv-x="0" d="M-768 1280h-128v128h256v-128h256v-128h768v128h256v128h256v-128h-128v-128h-256v-128h-1024v128h-256v128z" />
<glyph unicode="&#x35e;" horiz-adv-x="0" d="M-896 1152h1792v-128h-1792v128z" />
<glyph unicode="&#x35f;" horiz-adv-x="0" d="M-896 -128h1792v-128h-1792v128z" />
<glyph unicode="&#x360;" horiz-adv-x="0" d="M768 1408h256v-128h-128v-128h-256v-128h-512v128h-256v128h-256v-128h-256v-128h-256v128h128v128h256v128h512v-128h256v-128h256v128h256v128z" />
<glyph unicode="&#x361;" horiz-adv-x="0" d="M-768 1280h256v128h1024v-128h256v-128h128v-128h-256v128h-256v128h-768v-128h-256v-128h-256v128h128v128z" />
<glyph unicode="&#x362;" horiz-adv-x="0" d="M768 -384v128h-1792v128h1792v128h128v-128h128v-128h-128v-128h-128z" />
<glyph unicode="&#x363;" horiz-adv-x="0" d="M-640 1536h384v-512h-384v256h256v128h-256v128z" />
<glyph unicode="&#x364;" horiz-adv-x="0" d="M-256 1152v-128h-384v512h384v-256h-256v-128h256z" />
<glyph unicode="&#x365;" horiz-adv-x="0" d="M-512 1024v256h128v-128v-128h-128zM-512 1408v128h128v-128h-128z" />
<glyph unicode="&#x366;" horiz-adv-x="0" d="M-256 1024h-384v512h384v-512zM-512 1152h128v256h-128v-128v-128z" />
<glyph unicode="&#x367;" horiz-adv-x="0" d="M-384 1152v384h128v-512h-384v512h128v-128v-256h128z" />
<glyph unicode="&#x368;" horiz-adv-x="0" d="M-256 1152v-128h-384v512h384v-128h-256v-256h256z" />
<glyph unicode="&#x369;" horiz-adv-x="0" d="M-640 1408h256v128h128v-512h-384v384zM-384 1152v128h-128v-128h128z" />
<glyph unicode="&#x36a;" horiz-adv-x="0" d="M-512 1024h-128v512h128v-128h256v-384h-128v256h-128v-128v-128z" />
<glyph unicode="&#x36b;" horiz-adv-x="0" d="M-768 1536h640v-512h-128v384h-128v-384h-128v384h-128v-384h-128v512z" />
<glyph unicode="&#x36c;" horiz-adv-x="0" d="M-640 1024v512h384v-128h-256v-384h-128z" />
<glyph unicode="&#x36d;" horiz-adv-x="0" d="M-512 1280h-128v128h128v128h128v-128h128v-128h-128v-128h128v-128h-256v256z" />
<glyph unicode="&#x36e;" horiz-adv-x="0" d="M-256 1152h-128v384h128v-384zM-640 1152v384h128v-384h-128zM-512 1024v128h128v-128h-128z" />
<glyph unicode="&#x36f;" horiz-adv-x="0" d="M-384 1280h-128v128h-128v128h128v-128h128v-128h128v-256h-128v256zM-640 1280h128v-256h-128v256zM-256 1408h-128v128h128v-128z" />
<glyph unicode="&#x374;" d="M768 1280h-128v-128h-128v-128h-128v256h128v256h256v-256z" />
<glyph unicode="&#x375;" d="M640 -128h-128v-256h-256v256h128v128h256v-128z" />
<glyph unicode="&#x37a;" d="M768 -384h-384v256h256v-128h128v-128z" />
<glyph unicode="&#x37e;" d="M768 -128h-128v-128h-256v128h128v128h-128v256h384v-384zM768 640h-384v256h384v-256z" />
<glyph unicode="&#x384;" d="M640 1024h-256v512h256v-512z" />
<glyph unicode="&#x385;" d="M640 1024h-256v512h256v-512zM256 1024h-256v256h256v-256zM1024 1024h-256v256h256v-256z" />
<glyph unicode="&#x386;" d="M896 0h-256v384h-256v-384h-256v896h128v128h128v128h256v-128h128v-128h128v-896zM640 512v384h-256v-384h256zM256 1152h-256v384h256v-384z" />
<glyph unicode="&#x387;" d="M768 640h-384v256h384v-256z" />
<glyph unicode="&#x388;" d="M1024 0h-768v1152h-256v384h256v-384h768v-128h-512v-384h384v-128h-384v-384h512v-128z" />
<glyph unicode="&#x389;" d="M1024 0h-256v512h-256v-512h-256v1152h-256v384h256v-384h256v-512h256v512h256v-1152z" />
<glyph unicode="&#x38a;" d="M896 0h-512v128h128v896h-128v128h512v-128h-128v-896h128v-128zM256 1152h-256v384h256v-384z" />
<glyph unicode="&#x38c;" d="M1024 128h-128v-128h-512v128h-128v896h128v128h512v-128h128v-896zM768 128v896h-256v-896h256zM256 1152h-256v384h256v-384z" />
<glyph unicode="&#x38e;" d="M1024 640h-128v-128h-128v-512h-256v512h-128v128h-128v512h-256v384h256v-384h256v-512h256v512h256v-512z" />
<glyph unicode="&#x38f;" d="M1024 0h-384v256h128v768h-384v-768h128v-256h-384v128h128v128h-128v768h128v128h-256v384h256v-384h640v-128h128v-768h-128v-128h128v-128z" />
<glyph unicode="&#x390;" d="M1024 128h-128v-128h-384v128h-128v640h-128v128h384v-768h128v128h256v-128zM640 1024h-256v512h256v-512zM1024 1024h-256v256h256v-256zM256 1024h-256v256h256v-256z" />
<glyph unicode="&#x391;" d="M896 0h-256v384h-256v-384h-256v896h128v128h128v128h256v-128h128v-128h128v-896zM640 512v384h-256v-384h256z" />
<glyph unicode="&#x392;" d="M896 128h-128v-128h-640v1152h640v-128h128v-384h-128v-128h128v-384zM640 128v384h-256v-384h256zM640 640v384h-256v-384h256z" />
<glyph unicode="&#x393;" d="M896 1024h-512v-1024h-256v1152h768v-128z" />
<glyph unicode="&#x394;" d="M896 0h-768v896h128v128h128v128h256v-128h128v-128h128v-896zM640 128v768h-256v-768h256z" />
<glyph unicode="&#x395;" d="M896 0h-768v1152h768v-128h-512v-384h384v-128h-384v-384h512v-128z" />
<glyph unicode="&#x396;" d="M896 0h-768v384h128v128h128v128h128v128h128v256h-512v128h768v-384h-128v-128h-128v-128h-128v-128h-128v-256h512v-128z" />
<glyph unicode="&#x397;" d="M896 0h-256v512h-256v-512h-256v1152h256v-512h256v512h256v-1152z" />
<glyph unicode="&#x398;" d="M896 128h-128v-128h-512v128h-128v896h128v128h512v-128h128v-896zM640 128v384h-256v-384h256zM640 640v384h-256v-384h256z" />
<glyph unicode="&#x399;" d="M768 0h-512v128h128v896h-128v128h512v-128h-128v-896h128v-128z" />
<glyph unicode="&#x39a;" d="M896 0h-256v256h-128v256h-128v-512h-256v1152h256v-512h128v256h128v256h256v-256h-128v-256h-128v-128h128v-256h128v-256z" />
<glyph unicode="&#x39b;" d="M896 0h-256v896h-256v-896h-256v896h128v128h128v128h256v-128h128v-128h128v-896z" />
<glyph unicode="&#x39c;" d="M640 384h-128v384h-128v-768h-256v1152h256v-256h128v-128h128v-384zM1024 0h-256v768h-128v128h128v256h256v-1152z" />
<glyph unicode="&#x39d;" d="M1024 0h-256v384h-128v128h-128v128h-128v-640h-256v1152h256v-256h128v-128h128v-128h128v512h256v-1152z" />
<glyph unicode="&#x39e;" d="M896 896h-256v128h-256v-128h-256v256h768v-256zM896 0h-768v256h256v-128h256v128h256v-256zM768 512h-512v128h512v-128z" />
<glyph unicode="&#x39f;" d="M896 128h-128v-128h-512v128h-128v896h128v128h512v-128h128v-896zM640 128v896h-256v-896h256z" />
<glyph unicode="&#x3a0;" d="M896 0h-256v1024h-256v-1024h-256v1152h768v-1152z" />
<glyph unicode="&#x3a1;" d="M896 640h-128v-128h-384v-512h-256v1152h640v-128h128v-384zM640 640v384h-256v-384h256z" />
<glyph unicode="&#x3a3;" d="M896 0h-768v384h128v128h128v128h-128v128h-128v384h768v-128h-512v-256h128v-128h128v-128h-128v-128h-128v-256h512v-128z" />
<glyph unicode="&#x3a4;" d="M896 1024h-256v-1024h-256v1024h-256v128h768v-128z" />
<glyph unicode="&#x3a5;" d="M896 640h-128v-128h-128v-512h-256v512h-128v128h-128v512h256v-512h256v512h256v-512z" />
<glyph unicode="&#x3a6;" d="M1024 384h-128v-128h-256v-256h-256v256h-256v128h-128v384h128v128h256v256h256v-256h256v-128h128v-384zM384 384v384h-128v-384h128zM768 384v384h-128v-384h128z" />
<glyph unicode="&#x3a7;" d="M896 0h-256v384h-128v128h-128v256h-128v128h-128v256h256v-256h128v-128h128v-256h128v-128h128v-384zM384 0h-256v384h128v128h128v-512zM640 1152h256v-256h-128v-128h-128v384z" />
<glyph unicode="&#x3a8;" d="M1024 512h-128v-128h-256v-384h-256v384h-256v128h-128v640h256v-640h128v640h256v-640h128v640h256v-640z" />
<glyph unicode="&#x3a9;" d="M1024 0h-384v256h128v768h-384v-768h128v-256h-384v128h128v128h-128v768h128v128h640v-128h128v-768h-128v-128h128v-128z" />
<glyph unicode="&#x3aa;" d="M768 0h-512v128h128v896h-128v128h512v-128h-128v-896h128v-128zM896 1280h-256v256h256v-256zM384 1280h-256v256h256v-256z" />
<glyph unicode="&#x3ab;" d="M640 1152h256v-512h-128v-128h-128v-512h-256v512h-128v128h-128v512h256v-512h256v512zM640 1536h256v-256h-256v256zM128 1536h256v-256h-256v256z" />
<glyph unicode="&#x3ac;" d="M640 128v640h-256v-640h256v-128h-384v128h-128v640h128v128h384v-128h128v128h256v-128h-128v-640h128v-128h-256v128h-128zM640 1024h-256v512h256v-512z" />
<glyph unicode="&#x3ad;" d="M896 128h-128v-128h-512v128h-128v256h128v128h-128v256h128v128h512v-128h128v-128h-256v128h-256v-256h256v-128h-256v-256h256v128h256v-128zM640 1024h-256v512h256v-512z" />
<glyph unicode="&#x3ae;" d="M896 -384h-256v1152h-256v-768h-256v896h640v-128h128v-1152zM640 1024h-256v512h256v-512z" />
<glyph unicode="&#x3af;" d="M896 128h-128v-128h-384v128h-128v640h-128v128h384v-768h128v128h256v-128zM512 1024h-256v512h256v-512z" />
<glyph unicode="&#x3b0;" d="M896 128h-128v-128h-512v128h-128v768h256v-768h256v640h-128v128h256v-128h128v-640zM640 1024h-256v512h256v-512zM256 1024h-256v256h256v-256zM1024 1024h-256v256h256v-256z" />
<glyph unicode="&#x3b1;" d="M640 128v640h-256v-640h256v-128h-384v128h-128v640h128v128h384v-128h128v128h256v-128h-128v-640h128v-128h-256v128h-128z" />
<glyph unicode="&#x3b2;" d="M896 128h-128v-128h-256v128h128v384h-128v128h128v384h-256v-1408h-256v1408h128v128h512v-128h128v-384h-128v-128h128v-384z" />
<glyph unicode="&#x3b3;" d="M896 256h-128v-128h-128v-512h-256v512h-128v128h-128v640h256v-640h256v640h256v-640z" />
<glyph unicode="&#x3b4;" d="M640 128v640h-256v128h-128v128h-128v128h768v-128h-384v-128h256v-128h128v-640h-128v-128h-512v128h-128v640h256v-640h256z" />
<glyph unicode="&#x3b5;" d="M896 128h-128v-128h-512v128h-128v256h128v128h-128v256h128v128h512v-128h128v-128h-256v128h-256v-256h256v-128h-256v-256h256v128h256v-128z" />
<glyph unicode="&#x3b6;" d="M896 -256h-128v-128h-256v128h128v256h-384v128h-128v384h128v128h128v128h128v256h-384v128h640v-384h-128v-128h-128v-128h-128v-384h384v-128h128v-256z" />
<glyph unicode="&#x3b7;" d="M896 -384h-256v1152h-256v-768h-256v896h640v-128h128v-1152z" />
<glyph unicode="&#x3b8;" d="M896 128h-128v-128h-512v128h-128v896h128v128h512v-128h128v-896zM640 128v384h-256v-384h256zM640 640v384h-256v-384h256z" />
<glyph unicode="&#x3b9;" d="M896 128h-128v-128h-384v128h-128v640h-128v128h384v-768h128v128h256v-128z" />
<glyph unicode="&#x3ba;" d="M896 0h-256v256h-128v128h-128v-384h-256v896h256v-384h128v128h128v256h256v-256h-128v-128h-128v-128h128v-128h128v-256z" />
<glyph unicode="&#x3bb;" d="M896 0h-256v512h-256v-512h-256v512h128v128h128v256h-128v256h256v-256h128v-256h128v-128h128v-512z" />
<glyph unicode="&#x3bc;" d="M640 0h-256v-256h-128v-128h-256v128h128v1152h256v-768h256v-128zM1024 0h-256v128h-128v768h256v-768h128v-128z" />
<glyph unicode="&#x3bd;" d="M896 256h-128v-128h-128v-128h-256v128h-128v128h-128v640h256v-640h256v640h256v-640z" />
<glyph unicode="&#x3be;" d="M896 -256h-128v-128h-256v128h128v256h-384v128h-128v384h128v256h-128v256h128v128h512v-128h-384v-256h256v-128h-128v-128h-128v-384h384v-128h128v-256z" />
<glyph unicode="&#x3bf;" d="M896 128h-128v-128h-512v128h-128v640h128v128h512v-128h128v-640zM640 128v640h-256v-640h256z" />
<glyph unicode="&#x3c0;" d="M128 896h768v-896h-256v768h-256v-768h-256v896z" />
<glyph unicode="&#x3c1;" d="M896 128h-128v-128h-384v-384h-256v1152h128v128h512v-128h128v-640zM640 128v640h-256v-640h256z" />
<glyph unicode="&#x3c2;" d="M896 -256h-128v-128h-256v128h128v256h-384v128h-128v512h128v128h128v128h384v-128h-256v-128h-128v-512h384v-128h128v-256z" />
<glyph unicode="&#x3c3;" d="M1024 768h-128v-640h-128v-128h-512v128h-128v640h128v128h768v-128zM640 128v640h-256v-640h256z" />
<glyph unicode="&#x3c4;" d="M896 768h-256v-768h-256v768h-256v128h768v-128z" />
<glyph unicode="&#x3c5;" d="M896 128h-128v-128h-512v128h-128v768h256v-768h256v640h-128v128h256v-128h128v-640z" />
<glyph unicode="&#x3c6;" d="M896 128v640h-128v-640h128v-128h-128v-384h-256v384h-256v128h-128v768h256v-768h128v640h128v128h256v-128h128v-640h-128z" />
<glyph unicode="&#x3c7;" d="M768 384h-128v-128h128v-128h128v-512h-256v512h-256v-512h-256v512h128v128h128v128h-128v128h-128v384h256v-384h256v384h256v-384h-128v-128z" />
<glyph unicode="&#x3c8;" d="M768 896h256v-768h-128v-128h-256v-384h-128v384h-256v128h-128v768h256v-768h128v1024h128v-1024h128v768z" />
<glyph unicode="&#x3c9;" d="M1024 128h-128v-128h-256v128h-128v512h128v-512h128v640h-128v128h256v-128h128v-640zM512 0h-256v128h-128v640h128v128h256v-128h-128v-640h128v-128z" />
<glyph unicode="&#x3ca;" d="M896 128h-128v-128h-384v128h-128v640h-128v128h384v-768h128v128h256v-128zM256 1024h-256v256h256v-256zM768 1024h-256v256h256v-256z" />
<glyph unicode="&#x3cb;" d="M896 128h-128v-128h-512v128h-128v768h256v-768h256v640h-128v128h256v-128h128v-640zM896 1024h-256v256h256v-256zM384 1024h-256v256h256v-256z" />
<glyph unicode="&#x3cc;" d="M896 128h-128v-128h-512v128h-128v640h128v128h512v-128h128v-640zM640 128v640h-256v-640h256zM640 1024h-256v512h256v-512z" />
<glyph unicode="&#x3cd;" d="M896 128h-128v-128h-512v128h-128v768h256v-768h256v640h-128v128h256v-128h128v-640zM640 1024h-256v512h256v-512z" />
<glyph unicode="&#x3ce;" d="M1024 128h-128v-128h-256v128h-128v512h128v-512h128v640h-128v128h256v-128h128v-640zM512 0h-256v128h-128v640h128v128h256v-128h-128v-640h128v-128zM768 1024h-256v512h256v-512z" />
<glyph unicode="&#x3d0;" d="M896 128h-128v-128h-512v128h-128v896h128v128h512v-128h128v-384h-128v-128h128v-384zM640 128v384h-128v128h128v384h-256v-896h256z" />
<glyph unicode="&#x3d1;" d="M640 896v128h-128v128h256v-128h128v-128h128v-128h-128v-640h-128v-128h-384v128h-128v512h-128v128h256v-128h128v-512h128v640h-128v128h-128v128h128v-128h128z" />
<glyph unicode="&#x3d2;" d="M1024 1024h-128v-256h-128v-256h-128v-512h-256v512h-128v256h-128v256h-128v128h256v-128h128v-256h256v256h128v128h256v-128z" />
<glyph unicode="&#x3d3;" d="M1024 1024h-128v-256h-128v-256h-128v-512h-256v512h-128v256h-128v256h-128v512h256v-256h-128v-128h128v-128h128v-256h256v256h128v128h256v-128z" />
<glyph unicode="&#x3d4;" d="M1024 1024h-128v-256h-128v-256h-128v-512h-256v512h-128v256h-128v256h-128v128h256v-128h128v-256h256v256h128v128h256v-128zM384 1280h-256v256h256v-256zM896 1280h-256v256h256v-256z" />
<glyph unicode="&#x3d5;" d="M1024 128h-128v-128h-256v-384h-128v384h-256v128h-128v640h128v128h256v384h128v-384h256v-128h128v-640zM512 128v640h-128v-640h128zM768 128v640h-128v-640h128z" />
<glyph unicode="&#x3d6;" d="M768 128v640h-384v-640h128v-128h-256v128h-128v640h-128v128h896v-128h128v-640h-128v-128h-256v128h-128v512h128v-512h128z" />
<glyph unicode="&#x3d7;" d="M384 -384v128h256v128h128v384h-128v128h-128v-128h-128v-256h-384v256h128v512h-128v128h256v-128h128v-256h128v128h128v256h384v-256h-128v-384h128v-384h-128v-128h-128v-128h-384z" />
<glyph unicode="&#x3d8;" d="M256 128h-128v896h128v128h512v-128h128v-896h-128v-128h-128v-384h-256v384h-128v128zM640 1024h-256v-896h256v896z" />
<glyph unicode="&#x3d9;" d="M256 128h-128v640h128v128h512v-128h128v-640h-128v-128h-128v-384h-256v384h-128v128zM640 768h-256v-640h256v640z" />
<glyph unicode="&#x3da;" d="M384 256h384v-128h128v-384h-128v-128h-256v128h128v384h-384v128h-128v768h128v128h512v-128h128v-256h-256v256h-128h-128v-128v-640z" />
<glyph unicode="&#x3db;" d="M768 640h-384v-512h384v-128h128v-256h-128v-128h-256v128h128v256h-384v128h-128v512h128v128h384v128h256v-128h-128v-128z" />
<glyph unicode="&#x3dc;" d="M896 1024h-512v-384h384v-128h-384v-512h-256v1152h768v-128z" />
<glyph unicode="&#x3dd;" d="M896 1024h-512v-384h384v-128h-384v-896h-256v1536h768v-128z" />
<glyph unicode="&#x3de;" d="M640 1024v-128h-128v-128h-128v-128h256v128h256v-384h-128v-128h-128v-128h128v-128h-256v128h-128v128h128v128h128v128h-256v-128h-256v384h128v128h128v128h-128v128h256v-128h128z" />
<glyph unicode="&#x3df;" d="M512 768h-128v-128h512v-256h-128v-128h-128v-256h-256v256h128v128h128v128h-512v256h128v128h128v256h128h128v-256h-128v-128z" />
<glyph unicode="&#x3e0;" d="M256 384h128v128h-256v128h128v128h128v128h-256v128h128v128h512v-128h128v-128h128v-640h-128v-128h-128v-128h-384v128h256v128h128v256h-128v-128h-128v-128h-256v128zM512 640h-128v-128h128v128zM512 1024h-128v-128h128v128zM640 768h128v128h-128v-128zM512 640 h128v128h-128v-128z" />
<glyph unicode="&#x3e1;" d="M512 -256h128v512h-128v-128h-256v128h128v128h-256v128h128v128h128v128h-256v128h512v-128h128v-128h128v-896h-128v-128h-256v128zM512 512h128v128h-128v-128zM384 512v-128h128v128h-128z" />
<glyph unicode="&#x3e2;" d="M128 -256h128v128h512v128h-512v128h-128v1024h256v-1024h128v1024h128v-1024h128v1024h256v-1536h-256v128h-384v-128h-256v128z" />
<glyph unicode="&#x3e3;" d="M128 -256h128v128h512v128h-512v128h-128v768h256v-768h128v768h128v-768h128v768h256v-1280h-256v128h-384v-128h-256v128z" />
<glyph unicode="&#x3e4;" d="M512 1024h-128v-384h384v512h256v-1152h-256v512h-512v128h-128v384h128v128h256h128v-256h-128v128z" />
<glyph unicode="&#x3e5;" d="M896 1152v-1152h-256v512h-384v128h-128v384h128v128h256v-128h-128v-384h256v512h256z" />
<glyph unicode="&#x3e6;" d="M896 -256h-128v-128h-384v128h-128v-128h-256v128h128v128h384v-128h128v128h128v768h-128v128h-256v-768h-256v1152h256v-256h384v-128h128v-128h128v-768h-128v-128z" />
<glyph unicode="&#x3e7;" d="M128 768h128v128h256v128h128v128h256v-128h-128v-128h128v-128h128v-640h-128v-128h-384v128h-128v-128h-256v128h128v128h384v-128h128v640h-128v-384h-384v128h-128v256zM512 768h-128v-256h128v256z" />
<glyph unicode="&#x3e8;" d="M640 384h256v-256h-128v-128h-512v128h-128v256h128v128h128v128h128v128h128v256h-256v-256h-256v256h128v128h512v-128h128v-256h-128v-128h-128v-128h-128v-128h-128v-256h256v128v128z" />
<glyph unicode="&#x3e9;" d="M256 768h-128v256h128v128h512v-128h128v-256h-128v-128h-128v-128h-128v-128h-128v-256h256v128h256v-128h-128v-128h-512v128h-128v256h128v128h128v128h-128v128zM384 768h256v256h-256v-256z" />
<glyph unicode="&#x3ea;" d="M896 1024h-128v-128h-128v-256h128v-256h128v-384h-768v384h128v256h128v128v128h-128v128h-128v128h256v-128h256v128h256v-128h128v-128h-128v128zM384 128h256v256h-256v-256zM0 1024h128v-128h-128v128z" />
<glyph unicode="&#x3eb;" d="M896 768h-128v-128h-128v-128h128v-128h128v-384h-768v384h128v128h128v0v128h-128v128h-128v128h256v-128h256v128h256v-128h128v-128h-128v128zM384 128h256v256h-256v-256zM0 768h128v-128h-128v128z" />
<glyph unicode="&#x3ec;" d="M768 1152h256v-128h-128v-128h-384v128h-128v-256h512v-128h128v-384h-128v-128h-128v-128h-512v128h-128v896h128v128h384v-128h128v128zM384 128h256v128h128v384h-384v-512z" />
<glyph unicode="&#x3ed;" d="M384 768v-128h384v-128h128v-384h-128v-128h-512v128h-128v640h128v128h512v128h256v-128h-128v-128h-512zM384 128h256v384h-256v-384z" />
<glyph unicode="&#x3ee;" d="M640 0h-256v768h-256v128h256v256h256v-256h256v-128h128v-128h-128v128h-256v-768zM256 640v-128h-128v128h-128v128h128v-128h128zM768 640h128v-128h-128v128z" />
<glyph unicode="&#x3ef;" d="M256 128h128v640h-256v128h256v256h256v-256h256v-128h-256v-768h-384v128z" />
<glyph unicode="&#x3f0;" d="M896 128h128v-128h-256v128h-128v256h-128v-128h-128v-256h-384v256h128v512h-128v128h256v-128h128v-256h128v128h128v256h384v-256h-128v-512z" />
<glyph unicode="&#x3f1;" d="M256 -256v128h-128v896h128v128h512v-128h128v-640h-128v-128h-384v-128h384v-128h128v-128h-256v128h-384zM640 768h-256v-640h256v640z" />
<glyph unicode="&#x3f2;" d="M768 768h-384v-640h384v-128h-512v128h-128v640h128v128h512v-128h128v-128h-128v128zM768 256h128v-128h-128v128z" />
<glyph unicode="&#x3f3;" d="M768 1024h-256v256h256v-256zM768 -256h-128v-128h-512v128h384v1024h-256v128h512v-1152z" />
<glyph unicode="&#x3f4;" d="M896 128h-128v-128h-512v128h-128v896h128v128h512v-128h128v-896zM640 128v384h-256v-384h256zM640 640v384h-256v-384h256z" />
<glyph unicode="&#x3f5;" d="M768 768h-384v-256h384v-128h-384v-256h384v-128h-512v128h-128v640h128v128h512v-128h128v-128h-128v128zM768 256h128v-128h-128v128z" />
<glyph unicode="&#x3f6;" d="M256 640h-128v128h128v128h512v-128h128v-640h-128v-128h-512v128h384v256h-384v128h384v256h-384v-128zM256 128h-128v128h128v-128z" />
<glyph unicode="&#x3f7;" d="M896 384h-128v-128h-384v-256h-256v1152h256v-256h384v-128h128v-384zM640 384v384h-256v-384h256z" />
<glyph unicode="&#x3f8;" d="M896 128h-128v-128h-384v-384h-256v1536h256v-256h384v-128h128v-640zM640 128v640h-256v-640h256z" />
<glyph unicode="&#x3f9;" d="M768 1024h-384v-896h384v-128h-512v128h-128v896h128v128h512v-128h128v-128h-128v128zM768 256h128v-128h-128v128z" />
</font>
</defs>
</svg>
